Тёмный кристалл: Эпоха сопротивления / The Dark Crystal: Age of Resistance (2019) WEB-DLRip (сезон 1, серии 1-10 из 10) Пифагор скачать торрент

Reply to topic

DL-List and Torrent activity [Update пиров]
Size:  17.88 GB   |    Registered:  2 months 1 day   |    Completed:  0 times
Seeders:  4  [  2 KB/s  ]   Leechers:  1  [  4 KB/s  ]   Show peers in full details
 
 
 
 
Author Message

Angel ®

Longevity: 4 years 4 months

Posts: 32


Post 02-Sep-2019 12:36

[Quote]

Тёмный кристалл: Эпоха сопротивления / The Dark Crystal: Age of Resistance - Производство: Великобритания, США / Canadian Film or Video Production Tax Credit (CPTC), The Jim Henson Company, NetFlix
Жанр: Фэнтези, Приключения
Режиссер: Луи Летерье
Актеры: Аквафина, Катрина Балф, Хелена Бонем Картер, Уоррик Броунлоу-Пайк, Дэйв Чэпман, Чарли Кондо, Харрис Дикинсон, Элис Диннеан, Натали Дормер, Тэрон Эджертон и др.
Описание:
Гелфлинги Райан, Бриа и Дит выясняют, что зловещие скексисы повредили волшебный кристалл, подпитывающий жизнь в мире. Именно благодаря им начинается восстание, способное уничтожить жестоких захватчиков.
Действие сериала разворачивается за несколько лет до событий фильма 1982 года «Тёмный кристалл».

Дата мировой премьеры: 30 августа 2019
Продолжительность: ~01:00:00 серия
Качество видео: WEB-DLRip
Перевод: Дублированный, профессиональный - Пифагор
Субтитры: русские, английские
Реклама: Отсутствует
Видео: AVC/H.264, 1280x576, ~4230 kbps
Аудио #1: AC3, 6 ch, 640 kbps - русский
Аудио #2: AC3, 6 ch, 640 kbps - английский

MediaInfo:

General
Unique ID : 176239907282239949779720885994158637461 (0x8496924CB73C0B668BF5186648CD4195)
Complete name : 01. Конец. Начало. Всё равно.mkv
Format : Matroska
Format version : Version 4
File size : 2.31 GiB
Duration : 1 h 1 min
Overall bit rate : 5 414 kb/s
Movie name : End. Begin. All the Same
Encoded date : UTC 2019-09-02 18:40:11
Writing application : mkvmerge v8.3.0 ('Over the Horizon') 32bit
Writing library : libebml v1.3.1 + libmatroska v1.4.2
Video
ID : 1
Format : AVC
Format/Info : Advanced Video Codec
Format profile : [email protected]
Format settings : CABAC / 4 Ref Frames
Format settings, CABAC : Yes
Format settings, Reference : 4 frames
Codec ID : V_MPEG4/ISO/AVC
Duration : 1 h 1 min
Bit rate : 4 230 kb/s
Width : 1 280 pixels
Height : 576 pixels
Display aspect ratio : 2.222
Frame rate mode : Constant
Frame rate : 23.976 (23976/1000) FPS
Color space : YUV
Chroma subsampling : 4:2:0
Bit depth : 8 bits
Scan type : Progressive
Bits/(Pixel*Frame) : 0.239
Stream size : 1.76 GiB (76%)
Writing library : x264 core 118
Encoding settings : cabac=1 / ref=3 / deblock=1:0:0 / analyse=0x3:0x113 / me=hex / subme=7 / psy=1 / psy_rd=1.00:0.00 / mixed_ref=1 / me_range=16 / chroma_me=1 / trellis=1 / 8x8dct=1 / cqm=0 / deadzone=21,11 / fast_pskip=1 / chroma_qp_offset=-2 / threads=6 / sliced_threads=0 / nr=0 / decimate=1 / interlaced=0 / bluray_compat=0 / constrained_intra=0 / bframes=3 / b_pyramid=2 / b_adapt=1 / b_bias=0 / direct=1 / weightb=1 / open_gop=0 / weightp=2 / keyint=11 / keyint_min=1 / scenecut=40 / intra_refresh=0 / rc_lookahead=11 / rc=abr / mbtree=1 / bitrate=4230 / ratetol=1.0 / qcomp=0.60 / qpmin=0 / qpmax=69 / qpstep=4 / ip_ratio=1.40 / aq=1:1.00
Default : Yes
Forced : No
Audio #1
ID : 2
Format : AC-3
Format/Info : Audio Coding 3
Commercial name : Dolby Digital
Codec ID : A_AC3
Duration : 1 h 1 min
Bit rate mode : Constant
Bit rate : 640 kb/s
Channel(s) : 6 channels
Channel layout : L R C LFE Ls Rs
Sampling rate : 48.0 kHz
Frame rate : 31.250 FPS (1536 SPF)
Bit depth : 16 bits
Compression mode : Lossy
Stream size : 280 MiB (12%)
Title : Dub
Language : Russian
Service kind : Complete Main
Default : Yes
Forced : No
Audio #2
ID : 3
Format : AC-3
Format/Info : Audio Coding 3
Commercial name : Dolby Digital
Codec ID : A_AC3
Duration : 1 h 1 min
Bit rate mode : Constant
Bit rate : 640 kb/s
Channel(s) : 6 channels
Channel layout : L R C LFE Ls Rs
Sampling rate : 48.0 kHz
Frame rate : 31.250 FPS (1536 SPF)
Bit depth : 16 bits
Compression mode : Lossy
Stream size : 280 MiB (12%)
Language : English
Service kind : Complete Main
Default : No
Forced : No
Text #1
ID : 4
Format : UTF-8
Codec ID : S_TEXT/UTF8
Codec ID/Info : UTF-8 Plain Text
Duration : 59 min 42 s
Bit rate : 74 b/s
Count of elements : 746
Stream size : 32.5 KiB (0%)
Language : Russian
Default : No
Forced : No
Text #2
ID : 5
Format : UTF-8
Codec ID : S_TEXT/UTF8
Codec ID/Info : UTF-8 Plain Text
Duration : 58 min 27 s
Bit rate : 68 b/s
Count of elements : 1049
Stream size : 29.2 KiB (0%)
Language : English
Default : No
Forced : No
-Скриншоты:


Смотреть онлайн


[trackeroc.org].29010.torrent 
Torrent: Registered   [ 2019-10-10 10:52 ]

Скачать торрент

181 KB

Status: checked
Completed: 35 times
Size: 17.88 GB
 

BiOS (02-сен-19), Admin (02-сен-19)
Similar torrent
Forum Topic Author Size
Зарубежные Тёмный кристалл / The Dark Crystal (1982) [720p] BDRip BiOS 4.66 GB
Фантастика ,Фэнтези Люди Икс: Тёмный Феникс / Dark Phoenix (2019) BDRip Admin 1.47 GB
Квесты, я ищу, Поиск предметов, Hidden Object Sable Maze 7: Nightmare Shadows / Темный лабиринт 7: Тени кошмара [RUS / ENG] (2017) Admin 1.12 GB
Квесты, я ищу, Поиск предметов, Hidden Object Dark Realm 4. Guardian Of Flames Collectors Edition / Темный мир 4: Хранитель пламени [RUS / ENG] (2017) Admin 917 MB

_________________
[Profile] [PM]
Display posts from previous:    
Reply to topic

The time now is: Today 20:23

All times are GMT + 4 Hours



You cannot post new topics in this forum
You cannot reply to topics in this forum
You cannot edit your posts in this forum
You cannot delete your posts in this forum
You cannot vote in polls in this forum
You cannot attach files in this forum
You can download files in this forum