Руслан и Людмила: Перезагрузка / Украденная принцесса: Руслан и Людмила / Викрадена принцеса: Руслан i Людмила (2018) BDRip [H.264/1080p] скачать торрент

Reply to topic

DL-List and Torrent activity [Update пиров]
Size:  6.37 GB   |    Registered:  20 days   |    Completed:  0 times
Seeders:  7  [  246 KB/s  ]   Show peers in full details
 
 
 
 
Author Message

BiOS ®

Longevity: 5 years 5 months

Posts: 2337

Location: East Siberia


Post 25-Sep-2019 02:11

[Quote]

Руслан и Людмила: Перезагрузка / Украденная принцесса: Руслан и Людмила / Викрадена принцеса: Руслан i Людмила
«Любовь сильнее магии»
- Производство: Украина / Animagrad Animation Studio, Film.UA
Жанр: Фэнтези, Комедия
Режиссер: Олег Маламуж
В ролях: Надежда Дорофеева, Алексей Завгородний, Евгений Малуха, Сергей Притула, Юрий Горбунов, Олег Михайлюта, Николай Боклан, Маша Ефросинина, Егор Крутоголов, Евгений Гашенко
Описание:
Бродячий артист Руслан, мечтающий стать рыцарем, встретил прекрасную Милу и влюбился в неё, даже не подозревая, что девушка — дочь киевского князя. Но счастью влюбленных было не суждено продлиться вечно: злой колдун Черномор явился в магическом вихре и на глазах Руслана похитил возлюбленную, рассчитывая превратить силу её любви в собственное колдовское могущество. Не раздумывая, Руслан пустился в погоню за украденной принцессой, чтобы, преодолев все преграды и опасности на своем пути, доказать, что настоящая любовь — сильнее магии.

Возраст: 6+ (зрителям, достигшим 6 лет)
Дата мировой премьеры: 7 марта 2018
Дата российской премьеры: 1 августа 2019, «Экспонента»
Продолжительность: 01:31:09
Качество видео: BDRip 1080р
Перевод: Дублированный (iTunes)
Субтитры: Pусские
Видео: AVC/H.264, 1920х804, ~7925 Kbps
Аудио: AC3, 6 ch, 384 Kbps - Русский
Аудио: AC3, 2 ch, 192 Kbps - Украинский
Аудио: AC3, 6 ch, 384 Kbps - Английский

MediaInfo:

Уникальный идентификатор                 : 24837924825526208475050937132604597780 (0x12AF9C3DC96CD2794BABC6634D522614)
Полное имя : The.Stolen.Princess.2018.BDRip.1080p.mkv
Формат : Matroska
Версия формата : Version 4
Размер файла : 6,37 Гбайт
Продолжительность : 1 ч. 31 м.
Общий поток : 10,0 Мбит/сек
Дата кодирования : UTC 2019-09-24 09:06:28
Программа кодирования : mkvmerge v37.0.0 ('Leave It') 32-bit
Библиотека кодирования : libebml v1.3.9 + libmatroska v1.5.2
Обложка : Yes
Attachments : Cover - The.Stolen.Princess.png
Видео
Идентификатор : 1
Формат : AVC
Формат/Информация : Advanced Video Codec
Профиль формата : [email protected]
Настройки формата : CABAC / 5 Ref Frames
Параметр CABAC формата : Да
Параметр RefFrames формата : 5 кадров
Идентификатор кодека : V_MPEG4/ISO/AVC
Продолжительность : 1 ч. 31 м.
Битрейт : 7925 Кбит/сек
Ширина : 1920 пикселей
Высота : 804 пикселя
Соотношение сторон : 2,40:1
Режим частоты кадров : Постоянный
Частота кадров : 24,000 кадра/сек
Цветовое пространство : YUV
Субдискретизация насыщенности : 4:2:0
Битовая глубина : 8 бит
Тип развёртки : Прогрессивная
Бит/(Пиксели*Кадры) : 0.214
Размер потока : 5,04 Гбайт (79%)
Библиотека кодирования : x264 core 146 r2538 121396c
Настройки программы : cabac=1 / ref=5 / deblock=1:-3:-3 / analyse=0x3:0x133 / me=umh / subme=11 / psy=1 / psy_rd=0.95:0.05 / mixed_ref=1 / me_range=64 / chroma_me=1 / trellis=2 / 8x8dct=1 / cqm=0 / deadzone=21,11 / fast_pskip=0 / chroma_qp_offset=-3 / threads=12 / lookahead_threads=3 / sliced_threads=0 / nr=0 / decimate=0 / interlaced=0 / bluray_compat=0 / constrained_intra=0 / bframes=10 / b_pyramid=2 / b_adapt=2 / b_bias=0 / direct=3 / weightb=1 / open_gop=0 / weightp=2 / keyint=240 / keyint_min=23 / scenecut=40 / intra_refresh=0 / rc_lookahead=40 / rc=2pass / mbtree=0 / bitrate=7925 / ratetol=1.0 / qcomp=0.60 / qpmin=0 / qpmax=69 / qpstep=4 / cplxblur=20.0 / qblur=0.5 / vbv_maxrate=50000 / vbv_bufsize=62500 / nal_hrd=none / filler=0 / ip_ratio=1.40 / pb_ratio=1.30 / aq=1:1.00
Язык : Ukrainian
Default : Да
Forced : Нет
Аудио #1
Идентификатор : 2
Формат : AC-3
Формат/Информация : Audio Coding 3
Коммерческое название : Dolby Digital
Идентификатор кодека : A_AC3
Продолжительность : 1 ч. 30 м.
Вид битрейта : Постоянный
Битрейт : 384 Кбит/сек
Каналы : 6 каналов
ChannelLayout : L R C LFE Ls Rs
Частота : 48,0 КГц
Частота кадров : 31,250 кадров/сек (1536 SPF)
Битовая глубина : 16 бит
Метод сжатия : С потерями
Размер потока : 250 Мбайт (4%)
Язык : Russian
ServiceKind/String : Complete Main
Default : Да
Forced : Нет
Аудио #2
Идентификатор : 3
Формат : AC-3
Формат/Информация : Audio Coding 3
Коммерческое название : Dolby Digital
Идентификатор кодека : A_AC3
Продолжительность : 1 ч. 30 м.
Вид битрейта : Постоянный
Битрейт : 192 Кбит/сек
Каналы : 2 канала
ChannelLayout : L R
Частота : 48,0 КГц
Частота кадров : 31,250 кадров/сек (1536 SPF)
Битовая глубина : 16 бит
Метод сжатия : С потерями
Размер потока : 125 Мбайт (2%)
Заголовок : iTunes
Язык : Ukrainian
ServiceKind/String : Complete Main
Default : Нет
Forced : Нет
Аудио #3
Идентификатор : 4
Формат : DTS
Формат/Информация : Digital Theater Systems
Идентификатор кодека : A_DTS
Продолжительность : 1 ч. 31 м.
Вид битрейта : Постоянный
Битрейт : 1509 Кбит/сек
Каналы : 6 каналов
ChannelLayout : C L R Ls Rs LFE
Частота : 48,0 КГц
Частота кадров : 93,750 кадра/сек (512 SPF)
Битовая глубина : 16 бит
Метод сжатия : С потерями
Размер потока : 984 Мбайт (15%)
Язык : English
Default : Нет
Forced : Нет
Текст
Идентификатор : 5
Формат : UTF-8
Идентификатор кодека : S_TEXT/UTF8
Идентификатор кодека/Информация : UTF-8 Plain Text
Продолжительность : 1 ч. 23 м.
Битрейт : 89 бит/сек
ElementCount : 911
Размер потока : 54,7 Кбайт (0%)
Заголовок : Full
Язык : Russian
Default : Нет
Forced : Нет
-Скриншоты:


Смотреть онлайн


[trackeroc.org].29218.torrent 
Torrent: Registered   [ 2019-09-25 02:11 ]

Скачать торрент

17 KB

Status: checked
Completed: 8 times
Size: 6.37 GB
 

Admin (25-сен-19), Angel (27-сен-19)

_________________
[Profile] [PM]
Display posts from previous:    
Reply to topic

The time now is: Today 00:59

All times are GMT + 4 Hours



You cannot post new topics in this forum
You cannot reply to topics in this forum
You cannot edit your posts in this forum
You cannot delete your posts in this forum
You cannot vote in polls in this forum
You cannot attach files in this forum
You can download files in this forum