Ронья, дочь разбойника / Sanzoku no Musume Ronja / Ronja the Robber's Daughter (2014-2015) BDRip [H.264/1080p] (сезон 1, серии 1-26 из 26) МТ скачать торрент

Reply to topic

DL-List and Torrent activity [Update пиров]
Size:  20.45 GB   |    Registered:  5 months 13 days   |    Completed:  0 times
Seeders:  5  [  288 KB/s  ]   Leechers:  1  [  0 KB/s  ]   Show peers in full details
 
 
 
 
Author Message

BiOS ®

Longevity: 5 years 7 months

Posts: 2375

Location: Earth


Post 24-Jun-2019 18:45

[Quote]

Ронья, дочь разбойника / Sanzoku no Musume Ronja / Ronja the Robber's Daughter - Производство: Япония, Polygon Pictures
Жанр: мультфильм, фэнтези, драма, мелодрама, комедия, приключения, семейный
Автор: Астрид Линдгрен
Режиссер: Горо Миядзаки
Актеры: Джиллиан Андерсон, Тереза Галлахер, Расмус Хардайкер, Джиллз Нью, Боб Голдинг, Эдриен Эдмондсон, Руфус Хаунд, Келли Адамс, Морвенна Бэнкс, Фукико Эндо
Описание: Однажды грозовой ночью на далеком Севере у разбойничьего атамана Маттиса и его подруги Ловисы родилась дочь, которую назвали Рони. Сидя у огня в главном зале древнего замка на горе, разбойники дружно славили своего вождя, не обращая внимания на крики нечисти в темном лесу. Даже молния, расколовшая замок, не испортила настроения - наконец-то в их веселой компании появилась достойная наследница, а грязной шайке атамана Борки, что осмеливается делить с ними лес, теперь придет скорый и неминучий конец. Они не знали, что в ту же ночь у Борки родился сын Бирк.
Когда рядом живут два неугомонных ребенка, они неминуемо встретятся, но настоящее знакомство Рони и Бирка состоялось, когда люди Борки внезапно заняли Северную башню замка. Несмотря на обстоятельства, ребята подружились, тайные встречи и совместные прогулки сблизили их настолько, что Бирк и Рони стали считать друг друга братом и сестрой. Между тем зимы становились все суровее, разбойничья жизнь – тяжелее, и было ясно, что в лесу должен остаться лишь один атаман. Но что случится, когда тайное станет явным, и дети пойдут против родителей? Смогут ли чистые детские чувства победить многолетнюю вражду?

Возраст: 6+ (зрителям, достигшим 6 лет)
Рейтинг MPAA: PG (рекомендуется присутствие родителей)
Релиз от: Мобильное телевидение
Продолжительность: 26 эпизодов по 25 мин. (650 мин.)
Качество видео: BDRip [H.264]
Перевод: Дублированный, профессиональный
Видео: MKV, x264, 1920x1080, ~4 609 kbps, 23.976 fps
Аудио: AC-3, 192 kbps, 48.0 kHz, 2 ch - Русский

Список эпизодов

01. Рожденная в бурю
02. Первое путешествие в лес
03. Лесной ужас
04. Слышен свист
05. Враг в замке
06. Брать без спроса
07. Песнь в тумане
08. Поздняя осень
09. Застряв в снегу
10. Клятва брата и сестры
11. Тайное дело
12. Свист под землей
13. Никудышные разбойники
14. Прекрасная весна
15. Бесконечная борьба: Часть 1
16. Бесконечная борьба: Часть 2
17. Переезд
18. Медвежья пещера
19. Потерянный нож
20. Дикие лошади
21. Спасаясь от Гарпий
22. Только этим летом
23. Жизнью дорожат
24. Сражение диких зверей
25. Одна шайка разбойников
26. Зов весны

MediaInfo

Код:
General
Unique ID                   : 256564501696977054563368042068209061972 (0xC1048690E66BC9D2BA61FB1729AC5054)
Format                      : Matroska
Format version              : Version 4
File size                   : 860 MiB
Duration                    : 25 min 2 s
Overall bit rate            : 4 803 kb/s
Encoded date                : UTC 2019-05-15 17:18:32
Writing application         : mkvmerge v33.1.0 ('Primrose') 64-bit
Writing library             : libebml v1.3.7 + libmatroska v1.5.0
Video
ID                          : 1
Format                      : AVC
Format/Info                 : Advanced Video Codec
Format profile              : [email protected]
Format settings             : CABAC / 5 Ref Frames
Format settings, CABAC      : Yes
Format settings, Reference  : 5 frames
Codec ID                    : V_MPEG4/ISO/AVC
Duration                    : 25 min 2 s
Bit rate                    : 4 609 kb/s
Width                       : 1 920 pixels
Height                      : 1 080 pixels
Display aspect ratio        : 16:9
Frame rate mode             : Constant
Frame rate                  : 23.976 (24000/1001) FPS
Color space                 : YUV
Chroma subsampling          : 4:2:0
Bit depth                   : 8 bits
Scan type                   : Progressive
Bits/(Pixel*Frame)          : 0.093
Stream size                 : 825 MiB (96%)
Writing library             : x264 core 155 r2901 7d0ff22
Encoding settings           : cabac=1 / ref=5 / deblock=1:1:1 / analyse=0x3:0x113 / me=umh / subme=9 / psy=1 / psy_rd=1.00:0.00 / mixed_ref=1 / me_range=32 / chroma_me=1 / trellis=0 / 8x8dct=1 / cqm=0 / deadzone=21,11 / fast_pskip=0 / chroma_qp_offset=-2 / threads=24 / lookahead_threads=2 / sliced_threads=0 / nr=0 / decimate=1 / interlaced=0 / bluray_compat=0 / stitchable=1 / constrained_intra=0 / bframes=3 / b_pyramid=2 / b_adapt=2 / b_bias=0 / direct=1 / weightb=1 / open_gop=0 / weightp=1 / keyint=240 / keyint_min=23 / scenecut=40 / intra_refresh=0 / rc_lookahead=40 / rc=crf / mbtree=1 / crf=16.0 / qcomp=0.60 / qpmin=0 / qpmax=69 / qpstep=4 / ip_ratio=1.40 / aq=1:1.00
Language                    : Japanese
Default                     : Yes
Forced                      : No
Audio
ID                          : 2
Format                      : AC-3
Format/Info                 : Audio Coding 3
Commercial name             : Dolby Digital
Codec ID                    : A_AC3
Duration                    : 25 min 2 s
Bit rate mode               : Constant
Bit rate                    : 192 kb/s
Channel(s)                  : 2 channels
Channel layout              : L R
Sampling rate               : 48.0 kHz
Frame rate                  : 31.250 FPS (1536 SPF)
Bit depth                   : 16 bits
Compression mode            : Lossy
Stream size                 : 34.4 MiB (4%)
Language                    : Russian
Service kind                : Complete Main
Default                     : Yes
Forced                      : No
-Скриншоты:


Смотреть онлайн


[trackeroc.org].28604.torrent 
Torrent: Registered   [ 2019-06-24 18:45 ]

Скачать торрент

105 KB

Status: checked
Completed: 23 times
Size: 20.45 GB
 

Admin (24-июн-19)
Similar torrent
Forum Topic Author Size
Сasual games, Тайм менеджмент Агентство Аргонавты 6: Пропавшая дочь / Argonauts Agency 6. Missing Daughter (2019) (RUS) Admin 264 MB
Боевики Дочь волка / Daughter of the Wolf (2019) WEB-DLRip [MVO] [AD] BiOS 1.34 GB
Квесты, я ищу, Поиск предметов, Hidden Object Dawn of Hope 2: Daughter of Thunder / Рассвет надежды: Дочь Грома [RUS / ENG] (2017) Admin 698 MB
Ужасы ,мистика ,триллеры Дочь Бога / Exposed (2016) WEB-DL [H.264/1080p-LQ] Admin 3.33 GB

_________________
[Profile] [PM]
Display posts from previous:    
Reply to topic

The time now is: Today 18:23

All times are GMT + 4 Hours



You cannot post new topics in this forum
You cannot reply to topics in this forum
You cannot edit your posts in this forum
You cannot delete your posts in this forum
You cannot vote in polls in this forum
You cannot attach files in this forum
You can download files in this forum