Приключения медведя Бригсби / Brigsby Bear скачать торрент

Ответить на тему

Статистика раздачи [Обновить пиров]
Размер:  1.46 GB   |    Зарегистрирован:  1 год   |    Скачан:  0 раз

Полного источника не было: Никогда

 
 
 
 
 
Автор Сообщение

Admin ®

Стаж: 2 года 6 месяцев

Сообщений: 5788

Откуда: trackeroc.ru


Пост 27-Ноя-2015 20:32

[Цитировать]

-Приключения медведя Бригсби / Brigsby Bear-- -Страна: США
Жанр: драма, комедия
Год выпуска: 2017
Продолжительность: 01:37:12-Перевод: Профессиональный (многоголосый закадровый)
Субтитры: нет
Оригинальная аудиодорожка: нет-Режиссер: Дэйв МакКери / Dave McCary-В ролях: Марк Хэмилл, Клер Дэйнс, Кайл Муни, Грег Киннир, Энди Сэмберг, Микейла Уоткинс, Кристофер Салливан, Хорхе Лендеборг мл., Крис Провост, Райан Симпкинс-Описание: «Приключения медведя Бригсби» — детская телепередача, снятая для одного-единственного зрителя: Джеймса. Когда передача внезапно прекращается, жизнь Джеймса меняется навсегда, и он решает закончить историю самостоятельно.- - -Качество видео: HDRip-AVC / Brigsby.Bear.2017.BDRip.1080p.ExKinoRay
Формат видео: MKV-Видео: MPEG-4 AVC, 1074x448 (2.40:1), 23.976 fps, ~1695 kbps avg, 0.147 bit/pixel
Аудио: 48 kHz, AC3 Dolby Digital, 3/2 (L,C,R,l,r) + LFE ch, ~448 kbps avg-

MediaInfo

Complete name               : D:\Раздачи\Приключения медведя Бригсби (2017) HDRip-AVC_ivanes20031987.mkv
Format : Matroska
Format version : Version 2
File size : 1.46 GiB
Duration : 1 h 37 min
Overall bit rate : 2 145 kb/s
Encoded date : UTC 2017-11-03 21:02:53
Writing application : mkvmerge v4.4.0 ('Die Wiederkehr') сборка от Jan 3 2011 21:40:45
Writing library : libebml v1.0.0 + libmatroska v1.0.0
Video
ID : 1
Format : AVC
Format/Info : Advanced Video Codec
Format profile : High@L4.1
Format settings, CABAC : Yes
Format settings, RefFrames : 14 frames
Codec ID : V_MPEG4/ISO/AVC
Duration : 1 h 37 min
Bit rate : 1 695 kb/s
Width : 1 074 pixels
Height : 448 pixels
Display aspect ratio : 2.40:1
Frame rate mode : Constant
Frame rate : 23.976 (24000/1001) FPS
Color space : YUV
Chroma subsampling : 4:2:0
Bit depth : 8 bits
Scan type : Progressive
Bits/(Pixel*Frame) : 0.147
Stream size : 1.12 GiB (77%)
Writing library : x264 core 152 r2851kMod ba24899
Encoding settings : cabac=1 / ref=14 / deblock=1:-2:-1 / analyse=0x3:0x113 / me=umh / subme=10 / psy=1 / fade_compensate=0.00 / psy_rd=1.00:0.00 / mixed_ref=1 / me_range=32 / chroma_me=1 / trellis=2 / 8x8dct=1 / cqm=0 / deadzone=21,11 / fast_pskip=0 / chroma_qp_offset=-2 / threads=14 / lookahead_threads=3 / sliced_threads=0 / nr=0 / decimate=0 / interlaced=0 / bluray_compat=0 / constrained_intra=0 / bframes=14 / b_pyramid=2 / b_adapt=2 / b_bias=0 / direct=1 / weightb=1 / open_gop=0 / weightp=2 / keyint=240 / keyint_min=23 / scenecut=40 / intra_refresh=0 / rc_lookahead=60 / rc=2pass / mbtree=0 / bitrate=1695 / ratetol=1.0 / qcomp=0.60 / qpmin=0 / qpmax=69 / qpstep=4 / cplxblur=20.0 / qblur=0.5 / vbv_maxrate=50000 / vbv_bufsize=62500 / nal_hrd=none / filler=0 / ip_ratio=1.40 / pb_ratio=1.30 / aq=1:1.00
Default : Yes
Forced : No
Audio
ID : 2
Format : AC-3
Format/Info : Audio Coding 3
Format settings, Endianness : Big
Codec ID : A_AC3
Duration : 1 h 37 min
Bit rate mode : Constant
Bit rate : 448 kb/s
Channel(s) : 6 channels
Channel positions : Front: L C R, Side: L R, LFE
Sampling rate : 48.0 kHz
Frame rate : 31.250 FPS (1536 SPF)
Bit depth : 16 bits
Compression mode : Lossy
Stream size : 311 MiB (21%)
Title : iTunes
Language : Russian
Service kind : Complete Main
Default : Yes
Forced : No

Скриншоты



Смотреть онлайн

[trackeroc.ru].10098.torrent 
Торрент: Зарегистрирован   [ 2017-11-07 12:43 ]

Скачать торрент

15 KB

Статус: проверено
Скачан: 19 раз
Размер: 1.46 GB
 

Похожие торренты
Форум Тема Автор Размер
Зарубежные сериалы Леденящие душу приключения Сабрины / Chilling Adventures of Sabrina [сезон 1] Admin 4.44 GB
Сasual games, Тайм менеджмент Приключения Римлян: Бритты. Сезон 1 / Roman Adventures Britons Season 1 (2018) RUS Admin 189 MB
Российские Экипаж [2016, драма, приключения, триллер, WEB-DLRip] Admin 2.05 GB
Комедии Новые приключения Аладдина / Les nouvelles aventures d'Aladin (2015) HDRip Admin 1.37 GB

_________________
[Профиль] [ЛС]
Показать сообщения:    
Ответить на тему

Текущее время: Сегодня 07:52

Часовой пояс: GMT + 4



Вы не можете начинать темы
Вы не можете отвечать на сообщения
Вы не можете редактировать свои сообщения
Вы не можете удалять свои сообщения
Вы не можете голосовать в опросах
Вы не можете прикреплять файлы к сообщениям
Вы можете скачивать файлы