Предприятие «Божий дар» / Perpetual Grace, LTD / Сезон: 1 / Серии: 1-10 из 10 скачать торрент

Reply to topic

DL-List and Torrent activity [Update пиров]
Size:  6.04 GB   |    Registered:  10 days   |    Completed:  0 times

Seeder not seen: Never

 
 
 
 
 
Author Message

Admin ®

Longevity: 5 years 3 months

Posts: 8532

Location: Скачать торрент


Post 02-Aug-2019 11:57

[Quote]

Предприятие «Божий дар» / Perpetual Grace, LTD
- Год выпуска: 2019
Страна: США
Жанр: Драма
Продолжительность: ~00:55:00-Перевод: Профессиональный (многоголосый закадровый) | Jaskier (БЕЗ ЦЕНЗУРЫ)-Режиссёр: Стив Конрад, Джим Уайтакер-В ролях: Джимми Симпсон, Бен Кингсли, Джеки Уивер, Луис Гусман, Дэймон Херриман, Крис Конрад, Дэна ДеЛоренцо, Дэш Уильямс, Элиана Х. Александр, Майкл Чернус-Описание: «Предприятие “Божий дар”» — неонуарный триллер с элементами комедии от авторов «Патриота» Стива Конрада и Брюса Терриса. Конрад также выступил в качестве режиссера шести эпизодов первого сезона. Своим стилем и подачей шоу напоминает культовую криминальную драму «Во все тяжкие». «Предприятие “Божий дар”» — проект едкий, жесткий, с надрывом и персонажами, которые достаточно умны, чтобы продумать план, но недостаточно хороши, чтобы без форс-мажоров воплотить его в реальность. Съемки сериала проходили в Нью-Мексико, а главные роли исполнили Джимми Симпсон («Черное зеркало»), Бен Кингсли («Ганди») и Джеки Уивер («Мой парень — псих»).
Иногда чтобы вернуть свое или отомстить обидчикам, люди готовы на самые отчаянные поступки. Пастор Браун (Бен Кингсли) и его жена Лилиан (Джеки Уивер) известны прихожанам как Ма и Па. Долгое время эта парочка обманывает последователей церкви, выманивая у них сбережения, прикрываясь религией и уверяя доверчивых жителей, что все средства идут на благие цели. Вор по имени Джеймс (Джимми Симпсон) решает обокрасть пастора, получив наводку от его же сына (Дэймон Херриман). И все у аферистов идет по плану, пока не оказывается, что старики не так просты, как ожидал Джеймс. На кону миллионы долларов, поэтому каждого, кто перешел им дорогу, ждет жестокая кровавая расплата.- --Качество: WEB-DLRip
Формат: AVI
Видео: XviD, 704x352 (2,000), 23,976 fps, ~1400 kbps
Аудио #1: 48 kHz, MPEG Layer 3, 2 ch, ~128.00 kbps | Rus
Аудио #2: 48 kHz, MPEG Layer 3, 2 ch, ~128.00 kbps | Eng
Субтитры: нет
Реклама: аудио, два раза в начале и в конце по 13 секунд
-

MediaInfo


Общее
Полное имя : V:\Perpetual.Grace.LTD. Season 1 (400p l Jaskier)\Perpetual.Grace.LTD.S01E01.Jaskier.avi
Формат : AVI
Формат/Информация : Audio Video Interleave
Размер файла : 639 Мбайт
Продолжительность : 53 м.
Общий поток : 1669 Кбит/сек
Программа кодирования : VirtualDubMod 1.5.10.3 | www.virtualdub-fr.org || (build 2550/release)
Библиотека кодирования : VirtualDubMod build 2550/release
Видео
Идентификатор : 0
Формат : MPEG-4 Visual
Профиль формата : Advanced [email protected]
Параметр BVOP формата : 2
Параметр QPel формата : Нет
Параметр GMC формата : Без точки перехода
Параметр матрицы формата : Выборочная
Идентификатор кодека : XVID
Идентификатор кодека/Подсказка : XviD
Продолжительность : 53 м.
Битрейт : 1399 Кбит/сек
Ширина : 704 пикселя
Высота : 352 пикселя
Соотношение сторон : 2,000
Частота кадров : 23,976 (23976/1000) кадра/сек
Цветовое пространство : YUV
Субдискретизация насыщенности : 4:2:0
Битовая глубина : 8 бит
Тип развёртки : Прогрессивная
Метод сжатия : С потерями
Бит/(Пиксели*Кадры) : 0.236
Размер потока : 536 Мбайт (84%)
Библиотека кодирования : XviD 73
Аудио #1
Идентификатор : 1
Формат : MPEG Audio
Версия формата : Version 1
Профиль формата : Layer 3
Режим : Joint stereo
Расширение режима : MS Stereo
Идентификатор кодека : 55
Идентификатор кодека/Подсказка : MP3
Продолжительность : 53 м.
Вид битрейта : Постоянный
Битрейт : 128 Кбит/сек
Каналы : 2 канала
Частота : 48,0 КГц
Метод сжатия : С потерями
Размер потока : 49,0 Мбайт (8%)
Выравнивание : Соединение по промежуткам
Продолжительность промежутка : 42 мс. (1,00 видеокадр)
Время предзагрузки промежутка : 504 мс.
Аудио #2
Идентификатор : 2
Формат : MPEG Audio
Версия формата : Version 1
Профиль формата : Layer 3
Режим : Joint stereo
Идентификатор кодека : 55
Идентификатор кодека/Подсказка : MP3
Продолжительность : 53 м.
Вид битрейта : Постоянный
Битрейт : 128 Кбит/сек
Каналы : 2 канала
Частота : 48,0 КГц
Метод сжатия : С потерями
Размер потока : 49,0 Мбайт (8%)
Выравнивание : Соединение по промежуткам
Продолжительность промежутка : 42 мс. (1,00 видеокадр)
Время предзагрузки промежутка : 504 мс.

Скриншоты

Внимание! Раздача ведётся путём добавления новых серий

Внимание! Раздача ведётся путём добавления новых серий; при каждом добавлении создаётся новый торрент. Чтобы начать докачку новой серии, пользователям необходимо сделать следующее:
(1) остановить скачивание,
(2) удалить старый торрент у себя из клиента (старые серии удалять не надо),
(3) скачать новый торрент и запустить его у себя в клиенте вместо старого, при этом указать клиенту путь в старую папку куда и должно происходить скачивание новых серий.
Ваш клиент при этом должен произвести хеширование (проверку) старой папки (если не производит сам - помогите ему сделать это), и будет докачивать только те серии которых у вас ещё нет. Старые серии при этом не удаляются, а продолжают раздаваться!
Eсли вы уже удалили старые серии, то предотвратить повторную закачку старых серий можно, отжав галочку в соответствующих местах при запуске нового торрента. По возможности, желательно не удалять старые серии как можно дольше чтобы релизёр не столько продолжал раздавать старые серии, а смог сконцентрироваться на новых.
- 

Смотреть онлайн


[trackeroc.org].28725.torrent 
Torrent: Registered   [ 2019-08-08 14:17 ]

Скачать торрент

122 KB

Status: checked
Completed: 11 times
Size: 6.04 GB
 


_________________
[Profile] [PM]
Display posts from previous:    
Reply to topic

The time now is: Today 21:07

All times are GMT + 4 Hours



You cannot post new topics in this forum
You cannot reply to topics in this forum
You cannot edit your posts in this forum
You cannot delete your posts in this forum
You cannot vote in polls in this forum
You cannot attach files in this forum
You can download files in this forum