По волчьим законам / Animal Kingdom / Сезон: 4 / Серии: 1-13 из 13 скачать торрент

Reply to topic

DL-List and Torrent activity [Update пиров]
Size:  8.36 GB   |    Registered:  3 months 9 days   |    Completed:  0 times
Seeders:  1  [  704 KB/s  ]   Show peers in full details
 
 
 
 
Author Message

Admin ®

Longevity: 5 years 7 months

Posts: 8906

Location: Скачать торрент


Post 02-Aug-2019 11:59

[Quote]

По волчьим законам / Animal Kingdom Год выпуска: 2019
Страна: США
Жанр: драма, криминал
Продолжительность: ~00:46:00
Перевод: Профессиональный (многоголосый закадровый) LostFilm
Режиссёр: Джон Уэллс, Кристофер Чулак
В ролях: Эллен Баркин, Шон Хэтоси, Бен Робсон, Джейк Вири, Финн Коул, Молли Гордон, Каролина Гуерра, Скотт Спидман, Спенсер Трит Кларк
Описание: После смерти матери 17-летний Джошуа Коди переезжает к своей родне в пляжный городок в Южной Калифорнии. Семейным делом руководит бабушка Джошуа — Джанин Коди. Главный её помощник — старший из братьев Коди, Поуп. Остальные сыновья тоже помогают матери по мере сил. Вскоре Джошуа понимает, что фамильный бизнес связан с криминалом, и что теперь он волей-неволей сделался частью этого нового для него и смертельно опасного мира.

Качество: WEB-DLRip
Формат: AVI
Видео: XviD, 720x400, 23,976 fps, ~ 1599 kbps
Аудио 1: 48 kHz, AC3 2ch, ~192 kbps|LostFilm|
Аудио 2: 48 kHz, AC3 2 ch, ~192 kbps
Субтитры: Английские (SDH)
Реклама: Отсутствует
Обрезка заставки и синхронизация: Игорь_Владимирович

MediaInfo


Format : AVI
Format/Info : Audio Video Interleave
File size : 657 MiB
Duration : 45mn 56s
Overall bit rate : 1 998 Kbps
Movie name : По волчьим законам 4х01: Джанин
Director : Бёдвар (WEB-DLRip 400p)
Writing application : VirtualDubModRus 1.5.10.2 (build 2542/release)
Comment : 31.05.2019
Video
ID : 0
Format : MPEG-4 Visual
Format profile : Advanced [email protected]
Format settings, BVOP : 1
Format settings, QPel : No
Format settings, GMC : No warppoints
Format settings, Matrix : Default (MPEG)
Codec ID : XVID
Codec ID/Hint : XviD
Duration : 45mn 56s
Bit rate : 1 600 Kbps
Width : 720 pixels
Height : 400 pixels
Display aspect ratio : 16:9
Frame rate : 23.976 (24000/1001) fps
Color space : YUV
Chroma subsampling : 4:2:0
Bit depth : 8 bits
Scan type : Progressive
Compression mode : Lossy
Bits/(Pixel*Frame) : 0.232
Stream size : 526 MiB (80%)
Writing library : XviD 67
Audio #1
ID : 1
Format : AC-3
Format/Info : Audio Coding 3
Mode extension : CM (complete main)
Format settings, Endianness : Big
Codec ID : 2000
Duration : 45mn 56s
Bit rate mode : Constant
Bit rate : 192 Kbps
Channel(s) : 2 channels
Channel positions : Front: L R
Sampling rate : 48.0 KHz
Frame rate : 31.250 fps (1536 spf)
Compression mode : Lossy
Stream size : 63.1 MiB (10%)
Alignment : Split accross interleaves
Interleave, duration : 42 ms (1.00 video frame)
Interleave, preload duratio : 500 ms
Audio #2
ID : 2
Format : AC-3
Format/Info : Audio Coding 3
Mode extension : CM (complete main)
Format settings, Endianness : Big
Codec ID : 2000
Duration : 45mn 56s
Bit rate mode : Constant
Bit rate : 192 Kbps
Channel(s) : 2 channels
Channel positions : Front: L R
Sampling rate : 48.0 KHz
Frame rate : 31.250 fps (1536 spf)
Compression mode : Lossy
Stream size : 63.1 MiB (10%)
Alignment : Split accross interleaves
Interleave, duration : 42 ms (1.00 video frame)
Interleave, preload duratio : 500 ms

Скриншоты

Внимание! Раздача ведётся путём добавления новых серий

Внимание! Раздача ведётся путём добавления новых серий; при каждом добавлении создаётся новый торрент. Чтобы начать докачку новой серии,пользователям необходимо сделать следующее:
(1) остановить скачивание,
(2) удалить старый торрент у себя из клиента (старые серии удалять не надо),
(3) скачать новый торрент и запустить его у себя в клиенте вместо старого, при этом указать клиенту путь в старую папку куда и должнопроисходить скачивание новых серий.
Ваш клиент при этом должен произвести хеширование (проверку) старой папки (если не производит сам - помогите ему сделать это), и будет докачивать только те серии
которых у вас ещё нет. Старые серии при этом не удаляются, а продолжают раздаваться!
Eсли вы уже удалили старые серии, то предотвратить повторную закачку старых серий можно, отжав галочку в соответствующих местах при запуске нового торрента.
По возможности, желательно не удалять старые серии как можно дольше чтобы релизёр не столько продолжал раздавать старые серии, а смог сконцентрироваться на новых.


Смотреть онлайн


[trackeroc.org].28726.torrent 
Torrent: Registered   [ 2019-08-30 14:52 ]

Скачать торрент

24 KB

Status: checked
Completed: 27 times
Size: 8.36 GB
 

Similar torrent
Forum Topic Author Size
Зарубежные сериалы По Волчьим Законам / Animal Kingdom (2017) (сезон 2, серии 1-13 из 13) LostFilm Admin 7.62 GB
Зарубежные сериалы По волчьим законам / Animal Kingdom (2016) WEB-DLRip (сезон 1, серии 1-10) Admin 5.96 GB
Российские сериалы По законам военного времени (2016) DVBRip (серии 1-12 из 12) BiOS 8.57 GB

_________________
[Profile] [PM]
Display posts from previous:    
Reply to topic

The time now is: Today 18:28

All times are GMT + 4 Hours



You cannot post new topics in this forum
You cannot reply to topics in this forum
You cannot edit your posts in this forum
You cannot delete your posts in this forum
You cannot vote in polls in this forum
You cannot attach files in this forum
You can download files in this forum