От заката до рассвета / From Dusk Till Dawn: The Series (2015) WEB-DLRip (сезон 2, серии 1-10 из 10) LostFilm скачать торрент

Reply to topic

DL-List and Torrent activity [Update пиров]
Size:  4.5 GB   |    Registered:  2 years 11 months   |    Completed:  0 times

Seeder not seen: 2 years 11 months

 
 
 
 
 
Author Message

BiOS ®

Longevity: 5 years 4 months

Posts: 2257

Location: East Siberia


Post 11-Sep-2016 09:06

[Quote]

От заката до рассвета / From Dusk Till Dawn: The Series - Производство: США
Жанр: ужасы, боевик, криминал
Режиссер: Роберт Родригес, Джо Менендес
Актеры: Д.Дж. Котрона, Зейн Холц, Роберт Патрик, Мэдисон Девенпорт, Брэндон Су Ху, Эйса Гонсалес, Джейк Бьюзи, Саманта Бекер, Сэнди Гарса и др.
Описание:
Сет Гекко, грабитель банков, и его не совсем психически стабильный братец Ричард находятся в розыске. Разыскивают их не только ФБР, но и техасские законники — шериф МакГроу и рейнджер Гонсалес, которые утраивают усилия после того, как после очередного ограбления, устроенного братьями Гекко, в банке остается несколько трупов. Пытаясь удрать в Мексику, Гекко сталкиваются с бывшим священником Джейкобом Фуллером и его семьей, которых берут в заложники и в их же трейлере отправляются к мексиканской границе. Заехав в небольшой стрип-клуб по дороге, они неудачно знакомятся с целой прорвой жаждущих крови вампиров и пытаются хотя бы дожить до рассвета, не говоря уже о том, чтобы истребить как можно больше чудовищ.
Продолжительность: ~00:46:00 серия
Качество видео: WEB-DLRip
Перевод: Многоголосый закадровый, профессиональный - LostFilm
Видео: XviD, 720x400 (16:9), ~1400 kb/s
Аудио Rus: MPEG Layer 3, 48,0 kHz, 2 ch, 192 kb/s — многоголосый закадровый

MediaInfo

Общее
Формат : AVI
Формат/Информация : Audio Video Interleave
Размер файла : 520 Мбайт
Продолжительность : 45 м.
Режим общего битрейта : Переменный
Общий поток : 1590 Кбит/сек
Программа кодирования : Nandub v1.0rc2
Библиотека кодирования : Nandub build 1853/release
Видео
Идентификатор : 0
Формат : MPEG-4 Visual
Профиль формата : Advanced [email protected]
Параметр BVOP формата : Нет
Параметр QPel формата : Нет
Параметр GMC формата : Без точки перехода
Параметр матрицы формата : Default (H.263)
Идентификатор кодека : XVID
Идентификатор кодека/Подсказка : XviD
Продолжительность : 45 м.
Битрейт : 1388 Кбит/сек
Ширина : 720 пикселей
Высота : 400 пикселей
Соотношение сторон : 16:9
Частота кадров : 23,976 кадра/сек
Цветовое пространство : YUV
Субдискретизация насыщенности : 4:2:0
Битовая глубина : 8 бит
Тип развёртки : Прогрессивная
Метод сжатия : С потерями
Бит/(Пиксели*Кадры) : 0.201
Размер потока : 454 Мбайт (87%)
Библиотека кодирования : XviD 1.2.1 (UTC 2008-12-04)
Аудио
Идентификатор : 1
Формат : MPEG Audio
Версия формата : Version 1
Профиль формата : Layer 3
Режим : Joint stereo
Расширение режима : MS Stereo
Идентификатор кодека : 55
Идентификатор кодека/Подсказка : MP3
Продолжительность : 45 м.
Вид битрейта : Переменный
Битрейт : 192 Кбит/сек
Каналы : 2 канала
Частота : 48,0 КГц
Метод сжатия : С потерями
Размер потока : 61,7 Мбайт (12%)
Выравнивание : Соединение по промежуткам
Продолжительность промежутка : 24 мс. (0,58 видеокадр)
Время предзагрузки промежутка : 488 мс.
Библиотека кодирования : LAME3.97b
Настройки программы : -m j -V 4 -q 3 -lowpass 18.6 --abr 192

Список серий

01. Opening Night / Ночь открытия
02. In a Dark Time / В темное время суток
03. Attack of the 50 Ft. Sex Machine / Нападение гигантской Секс-машины
04. The Best Little Horror House in Texas / Самый лучший магазинчик ужасов в Техасе
05. Bondage / Неволя
06. Bizarre Tales / Странные сказки
07. Bring Me the Head of Santanico Pandemonium / Принесите мне голову Сантанико Пандемониум
08. The Last Temptation of Richard Gecko / Последнее искушение Ричарда Гекко
09. There Will Be Blood / Да прольётся кровь
10. Santa Sangre / Священная кровь
-Скриншоты:


Смотреть онлайн


[trackeroc.ru].15074.torrent 
Torrent: Registered   [ 2016-09-11 09:06 ]

Скачать торрент

24 KB

Status: checked
Completed: 75 times
Size: 4.5 GB
 

Similar torrent
Forum Topic Author Size
Зарубежные сериалы От заката до рассвета / From Dusk Till Dawn (2016) (сезон 3, серии 1-10 из 10) NewStudio Admin 5.38 GB
Зарубежные сериалы От заката до рассвета / From Dusk Till Dawn: The Series (2014) WEB-DLRip (Сезон 1, Серии 1-10 из 10) LostFilm Admin 5.35 GB

_________________
[Profile] [PM]
Display posts from previous:    
Reply to topic

The time now is: Today 14:09

All times are GMT + 4 Hours



You cannot post new topics in this forum
You cannot reply to topics in this forum
You cannot edit your posts in this forum
You cannot delete your posts in this forum
You cannot vote in polls in this forum
You cannot attach files in this forum
You can download files in this forum