Очень странные дела / Странные вещи / Загадочные события / Stranger Things (2016-2019) WEB-DLRip (1-3 сезон, серии 1-25 из 25) Пифагор скачать торрент

Reply to topic

DL-List and Torrent activity [Update пиров]
Size:  24.19 GB   |    Registered:  20 days   |    Completed:  0 times
Seeders:  10  [  688 KB/s  ]   Leechers:  1  [  3 MB/s  ]   Show peers in full details
 
 
 
 
Author Message

BiOS ®

Longevity: 5 years 5 months

Posts: 2336

Location: East Siberia


Post 25-Sep-2019 04:04

[Quote]

Очень странные дела / Странные вещи / Загадочные события / Stranger Things
«The world is turning upside down»
- Производство: США / 21 Laps Entertainment, Monkey Massacre, NetFlix
Жанр: ужасы, фантастика, фэнтези, триллер, драма, детектив
Режиссер: Мэтт Даффер, Росс Даффер, Шон Леви
Актеры: Вайнона Райдер, Дэвид Харбор, Финн Вулфхарт, Милли Бобби Браун, Гейтен Матараццо, Кейлеб МакЛохлен, Наталия Дайер, Чарли Хитон, Кейра Буоно, Мэттью Модайн и др
Описание:
Главное действие нового телевизионного сериала разворачивается в 80-х годах на территории тихого провинциального города. Благоприятное течение местной жизни нарушает загадочное исчезновение подростка по имени Уилл. Выяснить обстоятельства дела, полны решимости родные мальчика и местный шериф. Также события затрагивают лучшего друга Уилла – Майка. Он начинает собственное расследование, в процессе которого встречает группу людей со сверхспособностями. Теперь Майк уверен, что близок к разгадке, однако для этого ему предстоит оказаться в эпицентре ожесточенной битвы потусторонних сил.
Действие второго сезона сериала начинается через год после событий, показанных в первом. Герои пытаются вернуться к обычной жизни, но встреча с необъяснимым не делает их жизнь проще...
В третьем сезоне Майк и его друзья, их подруга Одиннадцатая, а также шериф, снова столкнутся c монстрами из другого измерения...

Продолжительность: ~00:50:00 серия
Качество видео: WEB-DLRip
Перевод: Дублированный (Пифагор)
Субтитры: Русские (full,+в 3-м сезоне forced), английские (full) отдельно
Видео: Xvid, 704x352 (720x360 2-й сезон) , ~2000 Kbps
Аудио #1: AC3, 2 ch, 192 Kbps | Русский
Аудио #2: AC3, 6 ch, 384 Kbps | Английский

MediaInfo:

Общее
Полное имя : Stranger_Things_S01xE02.avi
Формат : AVI
Формат/Информация : Audio Video Interleave
Размер файла : 1011 Мбайт
Продолжительность : 54 м. 23 с.
Общий поток : 2597 Кбит/сек
Программа кодирования : VirtualDubModRus 1.5.10.2 (build 2542/release)
Библиотека кодирования : VirtualDubMod build 2542/release
Видео
Идентификатор : 0
Формат : MPEG-4 Visual
Профиль формата : Advanced [email protected]
Настройки формата : BVOP1
Параметр BVOP формата : 1
Параметр QPel формата : Нет
Параметр GMC формата : Без точки перехода
Параметр матрицы формата : Default (MPEG)
Идентификатор кодека : XVID
Идентификатор кодека/Подсказка : XviD
Продолжительность : 54 м. 23 с.
Битрейт : 2007 Кбит/сек
Ширина : 704 пикселя
Высота : 352 пикселя
Соотношение сторон : 2,000
Частота кадров : 23,976 (24000/1001) кадра/сек
Цветовое пространство : YUV
Субдискретизация насыщенности : 4:2:0
Битовая глубина : 8 бит
Тип развёртки : Прогрессивная
Метод сжатия : С потерями
Бит/(Пиксели*Кадры) : 0.338
Размер потока : 781 Мбайт (77%)
Библиотека кодирования : XviD 1.2.1 (UTC 2008-12-04)
Аудио #1
Идентификатор : 1
Формат : AC-3
Формат/Информация : Audio Coding 3
Коммерческое название : Dolby Digital
Идентификатор кодека : 2000
Продолжительность : 54 м. 23 с.
Вид битрейта : Постоянный
Битрейт : 192 Кбит/сек
Каналы : 2 канала
ChannelLayout : L R
Частота : 48,0 КГц
Частота кадров : 31,250 кадров/сек (1536 SPF)
Битовая глубина : 16 бит
Метод сжатия : С потерями
Размер потока : 74,7 Мбайт (7%)
Выравнивание : Соединение по промежуткам
Продолжительность промежутка : 42 мс. (1,00 видеокадр)
Время предзагрузки промежутка : 512 мс.
ServiceKind/String : Complete Main
Аудио #2
Идентификатор : 2
Формат : AC-3
Формат/Информация : Audio Coding 3
Коммерческое название : Dolby Digital
Идентификатор кодека : 2000
Продолжительность : 54 м. 23 с.
Вид битрейта : Постоянный
Битрейт : 384 Кбит/сек
Каналы : 6 каналов
ChannelLayout : L R C LFE Ls Rs
Частота : 48,0 КГц
Частота кадров : 31,250 кадров/сек (1536 SPF)
Битовая глубина : 16 бит
Метод сжатия : С потерями
Размер потока : 149 Мбайт (15%)
Выравнивание : Разделение по промежуткам
Продолжительность промежутка : 42 мс. (1,00 видеокадр)
Время предзагрузки промежутка : 500 мс.
ServiceKind/String : Complete Main
Общее
Полное имя : Stranger_Things_S02xE02.avi
Формат : AVI
Формат/Информация : Audio Video Interleave
Размер файла : 1,00 Гбайт
Продолжительность : 55 м. 39 с.
Общий поток : 2583 Кбит/сек
Программа кодирования : VirtualDubModRus 1.5.10.2 (build 2542/release)
Библиотека кодирования : VirtualDubMod build 2542/release
Видео
Идентификатор : 0
Формат : MPEG-4 Visual
Профиль формата : Advanced [email protected]
Настройки формата : BVOP2
Параметр BVOP формата : 2
Параметр QPel формата : Нет
Параметр GMC формата : Без точки перехода
Параметр матрицы формата : Default (MPEG)
Режим смешивания : Сжатый битовый поток
Идентификатор кодека : XVID
Идентификатор кодека/Подсказка : XviD
Продолжительность : 55 м. 39 с.
Битрейт : 1997 Кбит/сек
Ширина : 720 пикселей
Высота : 360 пикселей
Соотношение сторон : 2,000
Частота кадров : 23,976 (24000/1001) кадра/сек
Цветовое пространство : YUV
Субдискретизация насыщенности : 4:2:0
Битовая глубина : 8 бит
Тип развёртки : Прогрессивная
Метод сжатия : С потерями
Бит/(Пиксели*Кадры) : 0.321
Размер потока : 795 Мбайт (77%)
Библиотека кодирования : XviD 73
Аудио #1
Идентификатор : 1
Формат : AC-3
Формат/Информация : Audio Coding 3
Коммерческое название : Dolby Digital
Идентификатор кодека : 2000
Продолжительность : 54 м. 29 с.
Вид битрейта : Постоянный
Битрейт : 192 Кбит/сек
Каналы : 2 канала
ChannelLayout : L R
Частота : 48,0 КГц
Частота кадров : 31,250 кадров/сек (1536 SPF)
Битовая глубина : 16 бит
Метод сжатия : С потерями
Размер потока : 74,8 Мбайт (7%)
Выравнивание : Соединение по промежуткам
Продолжительность промежутка : 43 мс. (1,02 видеокадр)
Время предзагрузки промежутка : 512 мс.
ServiceKind/String : Complete Main
Аудио #2
Идентификатор : 2
Формат : AC-3
Формат/Информация : Audio Coding 3
Коммерческое название : Dolby Digital
Идентификатор кодека : 2000
Продолжительность : 55 м. 39 с.
Вид битрейта : Постоянный
Битрейт : 384 Кбит/сек
Каналы : 6 каналов
ChannelLayout : L R C LFE Ls Rs
Частота : 48,0 КГц
Частота кадров : 31,250 кадров/сек (1536 SPF)
Битовая глубина : 16 бит
Метод сжатия : С потерями
Размер потока : 153 Мбайт (15%)
Выравнивание : Разделение по промежуткам
Продолжительность промежутка : 42 мс. (1,00 видеокадр)
Время предзагрузки промежутка : 500 мс.
ServiceKind/String : Complete Main
Общее
Полное имя : Stranger_Things_S03xE02.avi
Формат : AVI
Формат/Информация : Audio Video Interleave
Размер файла : 989 Мбайт
Продолжительность : 50 м. 8 с.
Общий поток : 2758 Кбит/сек
Программа кодирования : VirtualDubModRus 1.5.10.2 (build 2542/release)
Библиотека кодирования : VirtualDubMod build 2542/release
Видео
Идентификатор : 0
Формат : MPEG-4 Visual
Профиль формата : Advanced [email protected]
Настройки формата : BVOP1
Параметр BVOP формата : 1
Параметр QPel формата : Нет
Параметр GMC формата : Без точки перехода
Параметр матрицы формата : Default (MPEG)
Идентификатор кодека : XVID
Идентификатор кодека/Подсказка : XviD
Продолжительность : 50 м. 8 с.
Битрейт : 2104 Кбит/сек
Ширина : 704 пикселя
Высота : 352 пикселя
Соотношение сторон : 2,000
Частота кадров : 23,976 (24000/1001) кадра/сек
Цветовое пространство : YUV
Субдискретизация насыщенности : 4:2:0
Битовая глубина : 8 бит
Тип развёртки : Прогрессивная
Метод сжатия : С потерями
Бит/(Пиксели*Кадры) : 0.354
Размер потока : 755 Мбайт (76%)
Библиотека кодирования : XviD 73
Аудио #1
Идентификатор : 1
Формат : AC-3
Формат/Информация : Audio Coding 3
Коммерческое название : Dolby Digital
Идентификатор кодека : 2000
Продолжительность : 50 м. 8 с.
Вид битрейта : Постоянный
Битрейт : 192 Кбит/сек
Каналы : 2 канала
ChannelLayout : L R
Частота : 48,0 КГц
Частота кадров : 31,250 кадров/сек (1536 SPF)
Битовая глубина : 16 бит
Метод сжатия : С потерями
Размер потока : 68,9 Мбайт (7%)
Выравнивание : Разделение по промежуткам
Продолжительность промежутка : 42 мс. (1,00 видеокадр)
Время предзагрузки промежутка : 500 мс.
ServiceKind/String : Complete Main
Аудио #2
Идентификатор : 2
Формат : AC-3
Формат/Информация : Audio Coding 3
Коммерческое название : Dolby Digital
Идентификатор кодека : 2000
Продолжительность : 50 м. 8 с.
Вид битрейта : Постоянный
Битрейт : 448 Кбит/сек
Каналы : 6 каналов
ChannelLayout : L R C LFE Ls Rs
Частота : 48,0 КГц
Частота кадров : 31,250 кадров/сек (1536 SPF)
Битовая глубина : 16 бит
Метод сжатия : С потерями
Размер потока : 161 Мбайт (16%)
Выравнивание : Разделение по промежуткам
Продолжительность промежутка : 42 мс. (1,00 видеокадр)
Время предзагрузки промежутка : 500 мс.
ServiceKind/String : Complete Main

Список серий:

1-й сезон (15 июля 2016):
1. Исчезновение Уилла Баерса / The Vanishing of Will Byers
2. Чудачка на Мейпл-Стрит / The Weirdo on Maple Street
3. Привет, Холли / Holly, Jolly
4. Труп / The Body
5. Блоха и акробат / The Flea and the Acrobat
6. Монстр / The Monster
7. Ванна / The Bathtub
8. Вверх Дном (Наизнанку) / The Upside Down
2-й сезон (27 октября 2017):
1. Безумный Макс / MADMAX
2. Сладость или гадость, урод / Trick or Treat, Freak
3. Головастик / The Pollywog
4. Уилл Мудрый / Will the Wise
5. Копать не выкопать / Dig Dug
6. Шпион / The Spy
7. Исчезнувшая сестра / The Lost Sister
8. Размышление / The Mind Flayer
9. Ворота / The Gate
3-й сезон (4 июля 2019):
1. Сьюзи, ты меня слышишь? / Suzie, Do You Copy?
2. Крысы торгового центра / The Mall Rats
3. Дело пропавших спасателей / The Case of the Missing Lifeguard
4. Испытание сауной / The Sauna Test
5. Истязатель / The Flayed
6. Единое - их многих / E Pluribus Unum
7. Укус / The Bite
8. Битва при Старкорте / The Battle of Starcourt

Знаете ли вы, что...

  • Первоначально братья Дафферы хотели сделать ремейк фильма «Оно» Стивена Кинга, но позже передумали. Когда они решили создать «Очень странные дела», в сериале осталось очень много отсылок к работам писателя.
  • Официальный постер для сериала был создан Кайлом Ламбертом. Он был выполнен в стиле, напоминающем работы известного художника Дрю Струзана, который разработал официальные плакаты для фильмов «Звёздные войны: Эпизод 4 – Новая надежда» (1977), «Индианы Джонса», «Назад в будущее» (1985), «Инопланетянина» (1982) и многих других.
  • В одном из интервью на NPR братья Даффер похвалили Милли Бобби Браун, как чрезвычайно одаренную актрису, и сказали, что она умеет приспосабливать свою игру для различных позиций объективов или камер, чего не умеет большинство детей-актёров. Но они также сказали, что бывали случаи на съемочной площадке, когда они всё же вспоминали, что актриса была просто маленькой девочкой. Например, однажды она появилась на съемочной площадке просто с ног до головы покрытая блестками, на что просто ответила: «Понятия не имею, откуда они взялись». На смывание этих блёсток ушло около 45 минут.
  • Согласно сообщению художественного отдела, трейлер шерифа Хоппера стоил всего 1 доллар.
  • Голос Гейтена Матараццо изменился настолько сильно к концу съемок, что звуковая команда не смогла использовать его для дополнительной записи диалога.
  • Транспортные средства отделения полиции Хокинс и униформа идентичны тем, которые используются в «Челюстях» и «Челюстях 2». Это касается цвета формы начальника полиции, которого там сыграл Рой Шайдер, треугольного шеврона, а также бежевого внедорожника, на котором он ездил. Полицейские в сериале тоже носят форму синего цвета и шляпы, как их коллеги в фильмах франшизы «Челюсти».
  • Актрисы-близнецы, сыгравшие Холли Уиллер, это те же девочки, которые играли Джудит в «Ходячих мертвецах» (2010).
-Скриншоты:

Дополнительные скриншоты:



Смотреть онлайн


[trackeroc.org].29220.torrent 
 SILVER TORRENT! DOWNLOAD TRAFFIC PARTIALLY CONSIDERED! 
Torrent: Registered   [ 2019-09-25 04:04 ]

Скачать торрент

129 KB

Status: checked
Completed: 15 times
Size: 24.19 GB
 

Admin (25-сен-19), Angel (27-сен-19)
Similar torrent
Forum Topic Author Size
Зарубежные сериалы Очень странные дела / Странные вещи / Загадочные события / Stranger Things (2019) (сезон 3, серии 1-8 из 8) Пифагор BiOS 5.93 GB
Visual Novel, Визуальные новеллы Странные Ночи / Strange Nights v0.04b (2018) (ENG+RUS) Admin 303 MB
Зарубежные сериалы Очень странные дела / Странные вещи / Загадочные события / Stranger Things (2017) WEBRip [H.264/1080p-LQ] (сезон 2, серии 1-9 из 9) OMSKBIRD [AD] BiOS 13.33 GB
Зарубежные сериалы Тёмная материя / Тёмные дела / Dark Matter (2016) (сезон 2, серии 1-13 из 13) Admin 7.06 GB

_________________
[Profile] [PM]
Display posts from previous:    
Reply to topic

The time now is: Today 14:03

All times are GMT + 4 Hours



You cannot post new topics in this forum
You cannot reply to topics in this forum
You cannot edit your posts in this forum
You cannot delete your posts in this forum
You cannot vote in polls in this forum
You cannot attach files in this forum
You can download files in this forum