Ледокол (2016) BDRip скачать торрент

Reply to topic

DL-List and Torrent activity [Update пиров]
Size:  1.37 GB   |    Registered:  3 years 2 months   |    Completed:  3 times

Seeder not seen: 2 years

 
 
 
 
 
Author Message

BiOS ®

Longevity: 5 years 10 months

Posts: 2425

Location: Earth


Post 22-Oct-2016 13:30

[Quote]

Ледокол - Производство: Россия / Профит
Жанр: Драма
Режиссер: Николай Хомерики
Актеры: Пётр Фёдоров, Сергей Пускепалис, Анна Михалкова, Ольга Филимонова, Александр Яценко, Александр Паль, Виталий Хаев, Алексей Барабаш, Дмитрий Муляр, Артур Чиргадзе, Артур Ваха, Алексей Шуплецов, Вячеслав Пасюков, Алексей Ручков
Описание: Основано на реальных событиях. 1985 год. Навстречу ледоколу «Михаил Громов» движется огромный айсберг. Уходя от столкновения с ним, судно попадает в ледовый плен и оказывается в вынужденном дрейфе вблизи побережья Антарктиды. Вокруг зловещая тишина и жуткий холод. Горючее на исходе… Нервы на пределе… И даже если можно было бы уйти - деваться все равно некуда. У командования ледокола нет права на ошибку. Одно неверное решение - и тяжелые льды раздавят судно…
Возраст: 12+ (зрителям, достигшим 12 лет)
Дата мировой премьеры: 4 ноября 2016
Дата российской премьеры: 20 октября 2016, «Наше Кино»
Дата выхода DVD/Blu-ray релиза: 19 декабря 2016, «НД Плэй»
Продолжительность: 02:03:57
Качество видео: BDRip
Перевод: Не требуется (Русский, Лицензия BD RUS)
Субтитры: Отсутствуют
Видео: Xvid, 720x304, 1124 kbps
Аудио: AC3, 6 ch, 448 kbps

MediaInfo

Код:
Общее
Формат                                   : AVI
Формат/Информация                        : Audio Video Interleave
Размер файла                             : 1,37 Гбайт
Продолжительность                        : 2 ч. 3 м.
Общий поток                              : 1582 Кбит/сек
Название фильма                          : LedoKol.2O16.O.BDRip.14OOMB_EPIDEMZ.CO
Программа кодирования                    : VirtualDubMod 1.5.10.2 (build 2540/release)
Формат оригинала/Имя                     : Movie
Видео
Идентификатор                            : 0
Формат                                   : MPEG-4 Visual
Профиль формата                          : Advanced [email protected]
Параметр BVOP формата                    : 2
Параметр QPel формата                    : Нет
Параметр GMC формата                     : Без точки перехода
Параметр матрицы формата                 : Выборочная
Идентификатор кодека                     : XVID
Идентификатор кодека/Подсказка           : XviD
Продолжительность                        : 2 ч. 3 м.
Битрейт                                  : 1124 Кбит/сек
Ширина                                   : 720 пикселей
Высота                                   : 304 пикселя
Соотношение сторон                       : 2,35:1
Частота кадров                           : 24,000 кадра/сек
Цветовое пространство                    : YUV
Субдискретизация насыщенности            : 4:2:0
Битовая глубина                          : 8 бит
Тип развёртки                            : Прогрессивная
Метод сжатия                             : С потерями
Бит/(Пиксели*Кадры)                      : 0.214
Размер потока                            : 997 Мбайт (71%)
Библиотека кодирования                   : XviD 1.2.1 (UTC 2008-12-04)
Аудио
Идентификатор                            : 1
Формат                                   : AC-3
Формат/Информация                        : Audio Coding 3
Расширение режима                        : CM (complete main)
Параметр Endianness формата              : Big
Идентификатор кодека                     : 2000
Продолжительность                        : 2 ч. 3 м.
Вид битрейта                             : Постоянный
Битрейт                                  : 448 Кбит/сек
Каналы                                   : 6 каналов
Расположение каналов                     : Front: L C R, Side: L R, LFE
Частота                                  : 48,0 КГц
Частота кадров                           : 31,250 кадров/сек (1536 spf)
Метод сжатия                             : С потерями
Размер потока                            : 397 Мбайт (28%)
Выравнивание                             : Разделение по промежуткам
Продолжительность промежутка             : 42  мс. (1,00 видеокадр)
Время предзагрузки промежутка            : 500  мс.
-Скриншоты:


Смотреть онлайн


[trackeroc.ru].15992.torrent 
Torrent: Registered   [ 2016-12-09 17:48 ]

Скачать торрент

14 KB

Status: checked
Completed: 150 times
Size: 1.37 GB
 

Similar torrent
Forum Topic Author Size
Action, экшены No Man’s Sky (2016) [Ru/Multi] (2.30) Repack xatab BiOS 5.94 GB
Action No Man's Sky (2016) [Ru/Multi] (2.30/dlc) License GOG max+100600 9.14 GB
Автосимуляторы My Summer Car [v21.02.2020] (2016) (RUS/ENG) Early Access Admin 372 MB
Action, экшены Paint the Town Red v0.10.2 [Early Access] (2016) (RUS/ENG) Admin 1.36 GB
Action, экшены No Man’s Sky (2016) [Ru/Multi] (2.30/dlc) Repack SE7EN BiOS 5.7 GB

_________________
[Profile] [PM]
Display posts from previous:    
Reply to topic

The time now is: Today 05:01

All times are GMT + 4 Hours



You cannot post new topics in this forum
You cannot reply to topics in this forum
You cannot edit your posts in this forum
You cannot delete your posts in this forum
You cannot vote in polls in this forum
You cannot attach files in this forum
You can download files in this forum