Край (2010) BDRip [H.264] скачать торрент

Reply to topic

DL-List and Torrent activity [Update пиров]
Size:  2.03 GB   |    Registered:  3 years 4 months   |    Completed:  3 times

Seeder not seen: 1 year 11 months

 
 
 
 
 
Author Message

BiOS ®

Longevity: 5 years 10 months

Posts: 2425

Location: Earth


Post 05-Oct-2016 10:29

[Quote]

Край
«Предельная скорость и беспредельная страсть»
- Производство: Россия, Централ Партнершип, ТПО Рок
Жанр: Драма, Военный
Режиссер: Алексей Учитель
Актеры: Владимир Машков, Сергей Гармаш, Владас Багдонас, Александр Баширов, Юлия Пересильд, Анна Уколова, Семен Белоцерковский, Алексей Горбунов, Вячеслав Крикунов, Аньорка Штрехель
Описание:
В августе 1945-го в далекий поселок с названием Край с войны возвращается бывший танкист Игнат, чья страсть — паровозы. Он узнает, что на уединенном острове с довоенных времен брошен немецкий паровоз, и принимается его восстанавливать. Но, оказывается, у паровоза уже есть имя — «Густав», и есть хозяйка — Эльза, дочь немецкого инженера, арестованного в начале войны. Да и для сельчан одержимый мечтой, свободный Игнат — чужак. Страсти закипают шекспировские, причем в них задействованы не только люди, но и несколько паровозов, почти живые существа, у каждого свое имя…
Возраст: 16+ (зрителям, достигшим 16 лет)
Продолжительность: 02:03:33
Качество видео: BDRip
Видео: AVC/H.264, 976x552, ~2000 Kbps
Аудио: AC3, 6 ch, 384 Kbps, CBR

Mediainfo:

Код:
General
Format                         : Matroska
Format version                 : Version 4 / Version 2
File size                      : 2.03 GiB
Duration                       : 2h 3mn
Overall bit rate               : 2 352 Kbps
Movie name                     : КРАЙ (rip by smithland)
Encoded date                   : UTC 2016-10-04 15:40:42
Writing application            : mkvmerge v9.4.2 ('So High') 64bit
Writing library                : libebml v1.3.4 + libmatroska v1.4.5
Attachements                   : COVER.png
DURATION                       : 02:03:33.344000000
NUMBER_OF_FRAMES               : 231667
NUMBER_OF_BYTES                : 355840512
_STATISTICS_WRITING_APP        : mkvmerge v9.4.2 ('So High') 64bit
Video
ID                             : 1
Format                         : AVC
Format/Info                    : Advanced Video Codec
Format profile                 : [email protected]
Format settings, CABAC         : Yes
Format settings, ReFrames      : 10 frames
Codec ID                       : V_MPEG4/ISO/AVC
Duration                       : 2h 3mn
Bit rate                       : 2 000 Kbps
Width                          : 976 pixels
Height                         : 552 pixels
Display aspect ratio           : 16:9
Frame rate mode                : Constant
Frame rate                     : 24.000 fps
Color space                    : YUV
Chroma subsampling             : 4:2:0
Bit depth                      : 8 bits
Scan type                      : Progressive
Bits/(Pixel*Frame)             : 0.155
Stream size                    : 1.66 GiB (82%)
Writing library                : x264 core 146 r2538 121396c
Encoding settings              : cabac=1 / ref=10 / deblock=1:-1:0 / analyse=0x3:0x133 / me=umh / subme=11 / psy=1 / psy_rd=1.20:0.30 / mixed_ref=1 / me_range=30 / chroma_me=1 / trellis=2 / 8x8dct=1 / cqm=0 / deadzone=21,11 / fast_pskip=1 / chroma_qp_offset=-4 / threads=12 / lookahead_threads=1 / sliced_threads=0 / nr=0 / decimate=0 / interlaced=0 / bluray_compat=0 / constrained_intra=0 / bframes=5 / b_pyramid=2 / b_adapt=1 / b_bias=0 / direct=1 / weightb=1 / open_gop=1 / weightp=2 / keyint=250 / keyint_min=23 / scenecut=40 / intra_refresh=0 / rc_lookahead=40 / rc=abr / mbtree=1 / bitrate=2000 / ratetol=1.0 / qcomp=0.60 / qpmin=0 / qpmax=69 / qpstep=4 / ip_ratio=1.40 / aq=1:1.10
Language                       : Russian
Default                        : Yes
Forced                         : Yes
Color range                    : Limited
Color primaries                : Generic film
Audio
ID                             : 2
Format                         : AC-3
Format/Info                    : Audio Coding 3
Mode extension                 : CM (complete main)
Format settings, Endianness    : Big
Codec ID                       : A_AC3
Duration                       : 2h 3mn
Bit rate mode                  : Constant
Bit rate                       : 384 Kbps
Channel(s)                     : 6 channels
Channel positions              : Front: L C R, Side: L R, LFE
Sampling rate                  : 48.0 KHz
Compression mode               : Lossy
Stream size                    : 339 MiB (16%)
Language                       : Russian
Default                        : Yes
Forced                         : Yes
-Скриншоты:


Смотреть онлайн


[trackeroc.ru].15551.torrent 
Torrent: Registered   [ 2016-10-05 10:29 ]

Скачать торрент

163 KB

Status: checked
Completed: 101 times
Size: 2.03 GB
 

Similar torrent
Forum Topic Author Size
Детективы ,криминал Первая любовь / Hatsukoi (2019) BDRip [H.264/720p] BiOS 3.42 GB
Зарубежные Барашек Шон: Фермагеддон / A Shaun the Sheep Movie: Farmageddon (2019) BDRip [H.264/1080p] BiOS 7.14 GB
Квесты, я ищу, Поиск предметов, Hidden Object Labyrinths of the World 11: The Wild Side / Лабиринты мира 11: Дикий Край [RUS / ENG] (2020) Admin 1.28 GB
Квесты, я ищу, Поиск предметов, Hidden Object Edge of Reality 6: Mark of Fate / Край Реальности 6: Метка Судьбы [RUS / ENG] (2019) Admin 1.03 GB
Фантастика ,Фэнтези Перспектива / Prospect (2018) BDRip BiOS 1.46 GB

_________________
[Profile] [PM]
Display posts from previous:    
Reply to topic

The time now is: Today 04:03

All times are GMT + 4 Hours



You cannot post new topics in this forum
You cannot reply to topics in this forum
You cannot edit your posts in this forum
You cannot delete your posts in this forum
You cannot vote in polls in this forum
You cannot attach files in this forum
You can download files in this forum