Отряд самоубийц / Suicide Squad (2016) HDTVRip [Line] скачать торрент

Reply to topic

DL-List and Torrent activity [Update пиров]
Size:  1.37 GB   |    Registered:  2 years 10 months   |    Completed:  12 times

Seeder not seen: 2 months 3 days

 
 
 
 
 
Author Message

BiOS ®

Longevity: 5 years 4 months

Posts: 2257

Location: East Siberia


Post 11-Aug-2016 16:47

[Quote]

Отряд самоубийц / Suicide Squad
«У справедливости есть обратная сторона»
- Производство: США
Жанр: Фантастика, Фэнтези, Боевик, Приключения
Режиссер: Дэвид Эйр
Продюсер: Брюс Франклин, Энди Хорвитц, Джефф Джонс
Актеры: Марго Робби, Уилл Смит, Джаред Лето, Джай Кортни, Кара Делевинь, Джей Эрнандес, Юэль Киннаман, Виола Дэвис, Адевале Акинойе-Агбаже, Скотт Иствуд.
Описание:
Правительство решает дать команде суперзлодеев шанс на искупление. Подвох в том, что их отправляют на миссию, где они, вероятнее всего, погибнут.
Возраст: 16+ (зрителям, достигшим 16 лет)
Рейтинг MPAA: PG-13 (детям до 13 лет просмотр нежелателен)
Дата выхода: 1 августа 2016
Релиз от: KOSHARA
Продолжительность: 02:02:23
Качество видео: HDTVRip
Перевод: Дублированный (Чистый звук)
Язык субтитров: Корейский
Вид субтитров: Вшитые неотключаемые
Реклама: Присутствуют голосовые и текстовые вставки рекламы.
Видео: Xvid, 720x304, 1395 Кбит/с
Аудио: AC3, 2 ch, 192 Кбит/с, CBR

Mediainfo:

Код:
Общее
Формат                                   : AVI
Формат/Информация                        : Audio Video Interleave
Размер файла                             : 1,37 Гбайт
Продолжительность                        : 2 ч. 2 м.
Общий поток                              : 1599 Кбит/сек
Программа кодирования                    : VirtualDubMod 1.5.10.2 (build 2540/release)
Библиотека кодирования                   : VirtualDubMod build 2540/release
Видео
Идентификатор                            : 0
Формат                                   : MPEG-4 Visual
Профиль формата                          : Advanced [email protected]
Параметр BVOP формата                    : 2
Параметр QPel формата                    : Нет
Параметр GMC формата                     : Без точки перехода
Параметр матрицы формата                 : Выборочная
Идентификатор кодека                     : XVID
Идентификатор кодека/Подсказка           : XviD
Продолжительность                        : 2 ч. 2 м.
Битрейт                                  : 1395 Кбит/сек
Ширина                                   : 720 пикселей
Высота                                   : 304 пикселя
Соотношение сторон                       : 2,35:1
Частота кадров                           : 29,970 кадров/сек
Цветовое пространство                    : YUV
Субдискретизация насыщенности            : 4:2:0
Битовая глубина                          : 8 бит
Тип развёртки                            : Прогрессивная
Метод сжатия                             : С потерями
Бит/(Пиксели*Кадры)                      : 0.213
Размер потока                            : 1,19 Гбайт (87%)
Библиотека кодирования                   : XviD 1.2.1 (UTC 2008-12-04)
Аудио
Идентификатор                            : 1
Формат                                   : AC-3
Формат/Информация                        : Audio Coding 3
Расширение режима                        : CM (complete main)
Параметр Endianness формата              : Big
Идентификатор кодека                     : 2000
Продолжительность                        : 2 ч. 2 м.
Вид битрейта                             : Постоянный
Битрейт                                  : 192 Кбит/сек
Каналы                                   : 2 канала
Расположение каналов                     : Front: L R
Частота                                  : 48,0 КГц
Битовая глубина                          : 16 бит
Метод сжатия                             : С потерями
Размер потока                            : 168 Мбайт (12%)
Выравнивание                             : Разделение по промежуткам
Продолжительность промежутка             : 33  мс. (1,00 видеокадр)
Время предзагрузки промежутка            : 500  мс.
-Скриншоты:


Смотреть онлайн


[trackeroc.ru].14375.torrent 
Torrent: Registered   [ 2016-10-20 20:51 ]

Скачать торрент

14 KB

Status: checked
Completed: 187 times
Size: 1.37 GB
 

Admin (11-авг-16)
Similar torrent
Forum Topic Author Size
Зарубежные сериалы Шесть / Шестой отряд / Six [сезон 2 серии 1-10 из 10] (2018) Admin 5.37 GB
Фантастика ,Фэнтези Зловещий отряд / Sinister Squad (2016) HDRip BiOS 1.37 GB
Фантастика ,Фэнтези Отряд самоубийц / Suicide Squad (2016) HDRip [Extended Cut] BiOS 2.05 GB
Action, экшены Suicide Squad: Special Ops / Отряд самоубийц: Спецназ [L] [RUS|Multi21 / ENG] (2016) Admin 243 MB

_________________


Last edited by BiOS on 2016-10-20 20:51; edited 3 times in total
[Profile] [PM]

BiOS ®

Longevity: 5 years 4 months

Posts: 2257

Location: East Siberia


Post 12-Aug-2016 13:30 (after 20 hours)

[Quote]

Оценка фильма 5 из 10 и только из-за Харли. А больше там нету абсалютно ни чего. Лучше посмотреть подобный мульт "Бэтмен: Нападение на Аркхэм / Batman: Assault on Arkham " Там хоть сюжет есть...... 

_________________
[Profile] [PM]
Display posts from previous:    
Reply to topic

The time now is: Today 12:53

All times are GMT + 4 Hours



You cannot post new topics in this forum
You cannot reply to topics in this forum
You cannot edit your posts in this forum
You cannot delete your posts in this forum
You cannot vote in polls in this forum
You cannot attach files in this forum
You can download files in this forum