Жуки (2019) WEB-DL [H.264/720p-LQ] (сезон 1, серии 1-16 из 16) скачать торрент

Reply to topic

DL-List and Torrent activity [Update пиров]
Size:  6.96 GB   |    Registered:  5 months 2 days   |    Completed:  0 times

Seeder not seen: Never

 
 
 
 
 
Author Message

BiOS ®

Longevity: 5 years 10 months

Posts: 2421

Location: Earth


Post 10-Sep-2019 23:32

[Quote]

ЖУКИ - Производство: Россия / Comedy Club Production
Жанр: комедия
Режиссер: Константин Смирнов
Актеры: Вячеслав Чепурченко, Вадим Дубровин, Павел Комаров, Максим Лагашкин, Анастасия Акатова, Дмитрий Радонов, Валерий Новиков, Александр Робак, Владимир Епифанцев, Игорь Верник, Анатолий Журавлёв
Описание:
Никита, Дэн и Артемий разработали уникальное приложение для смартфонов, вот-вот продадут его и осуществят все свои мечты. Но в последний момент многомиллионная сделка срывается и парней забирают в армию. Чтобы не ставить под угрозу успех своего стартапа, они выбирают альтернативную службу в глухой деревне Жуки, где будут пытаться довести свой проект до конца. Только не так просто разрабатывать приложение там, где нет даже интернета…

Дата российской премьеры: 02.09.2019
Продолжительность: ~00:25:00 серия
Качество видео: WEB-DL
Видео: AVC/H.264, 1280x720 (16:9), ~2600 Kbps
Аудио: AC3, 2 ch, 192 Kbps

MediaInfo:

General
Unique ID : 248467960382646439320301284157742233266 (0xBAED3042557EE4EEAF5B92EED60DB6B2)
Complete name : Zhuki.s01e01.2019.WEB-DL.(720p).ExKinoRay.mkv
Format : Matroska
Format version : Version 2
File size : 501 MiB
Duration : 25 min 6 s
Overall bit rate mode : Constant
Overall bit rate : 2 792 kb/s
Encoded date : UTC 2019-09-02 16:07:54
Writing application : mkvmerge v5.8.0 ('No Sleep / Pillow') built on Sep 2 2012 15:37:04
Writing library : libebml v1.2.3 + libmatroska v1.3.0
Video
ID : 1
Format : AVC
Format/Info : Advanced Video Codec
Format profile : [email protected]
Format settings : 4 Ref Frames
Format settings, CABAC : No
Format settings, Reference : 4 frames
Codec ID : V_MPEG4/ISO/AVC
Duration : 25 min 6 s
Bit rate mode : Constant
Bit rate : 2 600 kb/s
Width : 1 280 pixels
Height : 720 pixels
Display aspect ratio : 16:9
Frame rate mode : Constant
Frame rate : 25.000 FPS
Standard : PAL
Color space : YUV
Chroma subsampling : 4:2:0
Bit depth : 8 bits
Scan type : Progressive
Bits/(Pixel*Frame) : 0.113
Stream size : 457 MiB (91%)
Language : Russian
Default : Yes
Forced : No
Color range : Limited
Color primaries : BT.709
Transfer characteristics : BT.709
Matrix coefficients : BT.709
Audio
ID : 2
Format : AC-3
Format/Info : Audio Coding 3
Commercial name : Dolby Digital
Codec ID : A_AC3
Duration : 25 min 6 s
Bit rate mode : Constant
Bit rate : 192 kb/s
Channel(s) : 2 channels
Channel layout : L R
Sampling rate : 48.0 kHz
Frame rate : 31.250 FPS (1536 SPF)
Bit depth : 16 bits
Compression mode : Lossy
Stream size : 34.5 MiB (7%)
Language : Russian
Service kind : Complete Main
Default : Yes
Forced : No
-Скриншоты:


Смотреть онлайн


[trackeroc.org].29090.torrent 
Torrent: Registered   [ 2019-09-25 01:59 ]

Скачать торрент

37 KB

Status: checked
Completed: 50 times
Size: 6.96 GB
 

Admin (10-сен-19)
Similar torrent
Forum Topic Author Size
RPG, ролевые игры Littlewood v0.91 [Early Access] (2019) (ENG) Admin 151 MB
Arcade, Аркады, Платформеры People Playground v1.4 (2019) (ENG) Admin 165 MB
Cимуляторы Totally Accurate Battle Simulator v0.9.0a (2019) (ENG) Early Access Admin 1.07 GB
Песочницы, Sandbox Satisfactory [RUS / ENG] (2019) (v0.3.2.0) [Early Access] Repack DD Admin 4.39 GB
Strategy, Стратегии Erannorth Reborn - Blood Coven Rise [v1.050] [ENG] (2019) Admin 1.22 GB

_________________
[Profile] [PM]
Display posts from previous:    
Reply to topic

The time now is: Today 06:10

All times are GMT + 4 Hours



You cannot post new topics in this forum
You cannot reply to topics in this forum
You cannot edit your posts in this forum
You cannot delete your posts in this forum
You cannot vote in polls in this forum
You cannot attach files in this forum
You can download files in this forum