Жаворонок (1964) DVDRip скачать торрент

Reply to topic

DL-List and Torrent activity [Update пиров]
Size:  1.19 GB   |    Registered:  5 months 13 days   |    Completed:  0 times
Seeders:  2  [  158 KB/s  ]   Leechers:  1  [  472 KB/s  ]   Show peers in full details
 
 
 
 
Author Message

BiOS ®

Longevity: 5 years 10 months

Posts: 2425

Location: Earth


Post 08-Sep-2019 20:59

[Quote]

Жаворонок - Производство: СССР, Ленфильм
Жанр: Военный, Драма
Режиссер: Никита Курихин, Леонид Менакер
Актеры: Вячеслав Гуренков, Геннадий Юхтин, Валерий Погорельцев, Валентинс Скулме, Бруно Оя, Эрвин Абель, Жанис Катлапс, Хейно Мандри, Гунар Плаценс, Олев Тинн, Янис Юров, Жанна Шабалина, Любовь Малиновская, Юлия Диоши, М. Тулэ, Александр Афанасьев и другие
Описание:
Действия происходят в глубоком тылу Германии. Для улучшения характеристик противотанковых орудий, немцы использовали захваченные трофейные танки Красной Армии в качестве «живых» мишеней. Экипажи машин укомплектовывали военнопленными танкистами и гражданскими лицами из концлагерей. Фильм повествует о бегстве из плена одного из таких экипажей на танке Т-34. Вырвавшись из плена, они часа два мчались по немецкой территории, пока не подъехали к мосту, где в это время шла группа ребятишек-школьников. Перед экипажем возникла дилемма: раздавить детей гусеницами своего танка и тем самым проложить себе дорогу на другой берег, продолжив бегство, или сдаться в плен! Герои выбрали последнее. Но подоспевшие к месту немецкие артиллерийские расчеты изрешитили танк, оставшегося полуживого командира вечером повесили на орудийном стволе танка. В неравной схватке герои погибают. К такому подвигу нельзя быть равнодушным!

Возраст: 12+ (зрителям, достигшим 12 лет)
Продолжительность: 01:25:37
Качество видео: DVDRip
Видео: AVC/H.264, 704x528, ~1765 Kbps
Аудио: MP2, 2 ch, 192 Kbps

Рецензия, отзыв о фильме:

Герои фильма «Жаворонок» — трое русских и один француз. Они могли бы спокойно досидеть Великую Войну в тылу, хлебая лагерную баланду, униженно ломая шапку перед нацистами. В то время, как их братья сражались с врагом. И они воспользовались чудесным шансом — бежали из немецкого плена 22 июня 1942 года. И последние часы своей жизни прожили как свободные и сильные люди и погибли как герои.

MediaInfo:

Формат                                   : Matroska
Версия формата : Version 2
Размер файла : 1,19 Гбайт
Продолжительность : 1 ч. 25 м.
Общий поток : 1997 Кбит/сек
Дата кодирования : UTC 2014-04-18 11:20:28
Программа кодирования : mkvmerge v6.2.0 ('Promised Land') built on Apr 28 2013 12:22:01
Библиотека кодирования : libebml v1.3.0 + libmatroska v1.4.0
Видео
Идентификатор : 1
Формат : AVC
Формат/Информация : Advanced Video Codec
Профиль формата : [email protected]
Параметр CABAC формата : Да
Параметр ReFrames формата : 1 кадр
Идентификатор кодека : V_MPEG4/ISO/AVC
Продолжительность : 1 ч. 25 м.
Битрейт : 1765 Кбит/сек
Ширина : 704 пикселя
Высота : 528 пикселей
Соотношение сторон : 4:3
Режим частоты кадров : Постоянный
Частота кадров : 25,000 кадров/сек
Цветовое пространство : YUV
Субдискретизация насыщенности : 4:2:0
Битовая глубина : 8 бит
Тип развёртки : Прогрессивная
Бит/(Пиксели*Кадры) : 0.190
Размер потока : 1,06 Гбайт (88%)
Заголовок : Жаворонок (DVD Rip-AVC) Topmost
Язык : Russian
Default : Да
Forced : Нет
Аудио
Идентификатор : 2
Формат : MPEG Audio
Версия формата : Version 1
Профиль формата : Layer 2
Идентификатор кодека : A_MPEG/L2
Идентификатор кодека/Подсказка : MP2
Продолжительность : 1 ч. 25 м.
Вид битрейта : Постоянный
Битрейт : 192 Кбит/сек
Каналы : 2 канала
Частота : 48,0 КГц
Метод сжатия : С потерями
Размер потока : 118 Мбайт (10%)
Заголовок : MPEG/L2 (MP2), 48 KHz, 192 kbps, 2 ch.
Язык : Russian
Default : Да
Forced : Нет
-Скриншоты:


Смотреть онлайн


[trackeroc.org].29065.torrent 
 GOLD TORRENT! DOWNLOAD TRAFFIC DOES NOT CONSIDER! 
Torrent: Registered   [ 2019-09-08 20:59 ]

Скачать торрент

13 KB

Status: checked
Completed: 34 times
Size: 1.19 GB
 

Admin (08-сен-19), Angel (09-сен-19)
Similar torrent
Forum Topic Author Size
Отечественные Мультсериалы Ну погоди! (1969-2006) DVDRip (серии 01-20 из 20) HOPE 2.9 GB
Зарубежные Ко­рабль-приз­рак / Sora tobu yuureisen / The Flying Ghost Ship (1969) DVDRip [H.264/720p] BiOS 1.69 GB
Зарубежные Галерианы: Рион / Galerians: Rion (2004) DVDRip [H.264/720p] BiOS 2.29 GB
Зарубежные Шенмуе / Shenmue: The Movie (2001) DVDRip [H.264/720p] BiOS 2.8 GB
Российские сериалы Следствие ведут Знатоки (1971-2003) DVDRip (Дело № 1-24) BiOS 50.45 GB

_________________
[Profile] [PM]
Display posts from previous:    
Reply to topic

The time now is: Today 05:45

All times are GMT + 4 Hours



You cannot post new topics in this forum
You cannot reply to topics in this forum
You cannot edit your posts in this forum
You cannot delete your posts in this forum
You cannot vote in polls in this forum
You cannot attach files in this forum
You can download files in this forum