Два брата / Deux freres (2004) BDRip скачать торрент

Reply to topic

DL-List and Torrent activity [Update пиров]
Size:  1.46 GB   |    Registered:  8 days   |    Completed:  0 times
Seeders:  2  [  0 KB/s  ]   Show peers in full details
 
 
 
 
Author Message

BiOS ®

Longevity: 5 years 5 months

Posts: 2337

Location: East Siberia


Post 07-Oct-2019 07:56

[Quote]

Два брата / Deux freres
«The acclaimed director of 'The Bear' invites you to share their unforgettable journey home»
- Производство: Франция, Великобритания / Canal+ [fr], Pathé Renn Productions, Pathé, TF1 Films Production, Two Brothers Productions
Жанр: драма, приключения, семейный
Режиссер: Жан-Жак Анно
Актеры: Гай Пирс, Жан-Клод Дрейфюс, Фредди Хаймор, Оань Нгуен, Филиппин Леруа-Больё, Мусса Мааскри, Винсент Скарито, Май Ань Ле, Стефани Лагард
Описание:
Действие фильма происходит в таинственной глубине джунглей, где в окружении руин древнего города родились два брата, которые стали полной противоположностью друг друга. Один был нежным и стеснительным, другой – отважным и дерзким. Дети жили совершенно беззаботно до тех пор, пока не произошло несчастье и их не разлучили с родителями и друг с другом. Только лишь много лет спустя, когда герои стали уже совсем взрослыми, им посчастливилось встретиться.

Возраст: 12+ (зрителям, достигшим 12 лет)
Рейтинг MPAA: PG (рекомендуется присутствие родителей)
Дата мировой премьеры: 19 октября 1988
Продолжительность: 01:49:03
Качество видео: BDRip
Перевод: Дублированный
Видео: XviD, 704x288, 1457 Кбит/с
Аудио: AC3, 6 ch, 448 Кбит/с

MediaInfo:

Общее
Полное имя : Два брата\Dva brata 2004 BDRip.avi
Формат : AVI
Формат/Информация : Audio Video Interleave
Размер файла : 1,46 Гбайт
Продолжительность : 1 ч. 49 м.
Общий поток : 1914 Кбит/сек
Программа кодирования : VirtualDubMod 1.5.10.2 (build 2540/release)
Библиотека кодирования : VirtualDubMod build 2540/release
Видео
Идентификатор : 0
Формат : MPEG-4 Visual
Профиль формата : Advanced [email protected]
Параметр BVOP формата : 1
Параметр QPel формата : Нет
Параметр GMC формата : Без точки перехода
Параметр матрицы формата : Default (MPEG)
Идентификатор кодека : XVID
Идентификатор кодека/Подсказка : XviD
Продолжительность : 1 ч. 49 м.
Битрейт : 1457 Кбит/сек
Ширина : 704 пикселя
Высота : 288 пикселей
Соотношение сторон : 2,40:1
Частота кадров : 23,976 кадра/сек
Цветовое пространство : YUV
Субдискретизация насыщенности : 4:2:0
Битовая глубина : 8 бит
Тип развёртки : Прогрессивная
Метод сжатия : С потерями
Бит/(Пиксели*Кадры) : 0.300
Размер потока : 1,11 Гбайт (76%)
Библиотека кодирования : XviD 1.2.1 (UTC 2008-12-04)
Аудио
Идентификатор : 1
Формат : AC-3
Формат/Информация : Audio Coding 3
Расширение режима : CM (complete main)
Идентификатор кодека : 2000
Продолжительность : 1 ч. 49 м.
Вид битрейта : Постоянный
Битрейт : 448 Кбит/сек
Каналы : 6 каналов
Расположение каналов : Front: L C R, Side: L R, LFE
Частота : 48,0 КГц
Битовая глубина : 16 бит
Метод сжатия : С потерями
Размер потока : 349 Мбайт (23%)
Выравнивание : Разделение по промежуткам
Продолжительность промежутка : 42 мс. (1,00 видеокадр)
Время предзагрузки промежутка : 500 мс.
-Скриншоты:


Смотреть онлайн


[trackeroc.org].29292.torrent 
 SILVER TORRENT! DOWNLOAD TRAFFIC PARTIALLY CONSIDERED! 
Torrent: Registered   [ 2019-10-07 08:18 ]

Скачать торрент

15 KB

Status: checked
Completed: 20 times
Size: 1.46 GB
 

Admin (07-окт-19)

_________________
[Profile] [PM]
Display posts from previous:    
Reply to topic

The time now is: Today 01:08

All times are GMT + 4 Hours



You cannot post new topics in this forum
You cannot reply to topics in this forum
You cannot edit your posts in this forum
You cannot delete your posts in this forum
You cannot vote in polls in this forum
You cannot attach files in this forum
You can download files in this forum