Девушка с плеером / The Hidden Track (2019) WEB-DLRip скачать торрент

Reply to topic

DL-List and Torrent activity [Update пиров]
Size:  1.37 GB   |    Registered:  8 days   |    Completed:  0 times

Seeder not seen: Never

 
 
 
 
 
Author Message

BiOS ®

Longevity: 5 years 5 months

Posts: 2337

Location: East Siberia


Post 07-Oct-2019 06:58

[Quote]

Девушка с плеером / The Hidden Track - Производство: Россия / Red Carpet Studio, Rits Film, Oakhill Productions
Жанр: Драма, экранизация
Режиссер: Брайан Лай
Актеры: Екатерина Шмакова, Alan Emrys Prile, Тим Айткен-Смит, Джек Парр, Люк Хобсон, Dougie Wood, Остин Кэйли, Kathleen Hood, Alex Reynolds, Nastya Zinovieva
Описание:
Русская девушка Ника приезжает в Лондон, где несколько лет назад бесследно исчезла ее сестра Джен. Разместив на страничке в соцсети сообщение адресованное пропавшей сестре, Ника получает смс от неизвестного абонента. Это смс даёт ей подсказку, благодаря которой героиня берётся за собственное расследование. И начинает его в месте, где сегодня ищут и находят все и всех — в интернете, в социальных сетях. Новые зацепки приводят девушку в небольшой городок на окраине Лондона, где жила и работала сестра. Оказывается, она была девушкой солиста местной рок-группы, которая стала популярной сразу после исчезновения Джен. Рассказы лучших подруг сестры не совпадают в деталях, подробности жизни Джен кажутся странными, а рок-музыканты вызывают подозрения. Не расставаясь с любимым плеером, Ника ввязывается в игру, которая может стоить ей жизни, не подозревая, что ответы на вопросы можно найти именно в плеере.

Дата премьеры в России: 2 августа 2019
Продолжительность: 01:38:38
Качество видео: WEB-DLRip
Перевод: Не требуется (русский)
Субтитры: Отсутствуют
Видео: XviD, 720x304, ~1784 Kbps
Аудио: AC-3, 2 ch, 192 Kbps

MediaInfo:

Общее
Полное имя : Девушка с плеером\The.Hidden.Track.2019.WEB-DLRip.avi
Формат : AVI
Формат/Информация : Audio Video Interleave
Размер файла : 1,37 Гбайт
Продолжительность : 1 ч. 38 м.
Общий поток : 1985 Кбит/сек
Программа кодирования : VirtualDubMod 1.5.10.3 | www.virtualdub-fr.org || (build 2550/release)
Библиотека кодирования : VirtualDubMod build 2550/release
Видео
Идентификатор : 0
Формат : MPEG-4 Visual
Профиль формата : Advanced [email protected]
Настройки формата : BVOP1 / Custom Matrix
Параметр BVOP формата : 1
Параметр QPel формата : Нет
Параметр GMC формата : Без точки перехода
Параметр матрицы формата : Выборочная
Идентификатор кодека : XVID
Идентификатор кодека/Подсказка : XviD
Продолжительность : 1 ч. 38 м.
Битрейт : 1784 Кбит/сек
Ширина : 720 пикселей
Высота : 304 пикселя
Соотношение сторон : 2,35:1
Частота кадров : 23,976 (24000/1001) кадра/сек
Цветовое пространство : YUV
Субдискретизация насыщенности : 4:2:0
Битовая глубина : 8 бит
Тип развёртки : Прогрессивная
Метод сжатия : С потерями
Бит/(Пиксели*Кадры) : 0.340
Размер потока : 1,23 Гбайт (90%)
Библиотека кодирования : XviD 73
Аудио
Идентификатор : 1
Формат : AC-3
Формат/Информация : Audio Coding 3
Коммерческое название : Dolby Digital
Идентификатор кодека : 2000
Продолжительность : 1 ч. 38 м.
Вид битрейта : Постоянный
Битрейт : 192 Кбит/сек
Каналы : 2 канала
ChannelLayout : L R
Частота : 48,0 КГц
Частота кадров : 31,250 кадров/сек (1536 SPF)
Битовая глубина : 16 бит
Метод сжатия : С потерями
Размер потока : 135 Мбайт (10%)
Выравнивание : Разделение по промежуткам
Продолжительность промежутка : 42 мс. (1,00 видеокадр)
Время предзагрузки промежутка : 500 мс.
ServiceKind/String : Complete Main
-Скриншоты:


Смотреть онлайн


[trackeroc.org].29289.torrent 
Torrent: Registered   [ 2019-10-07 06:58 ]

Скачать торрент

14 KB

Status: checked
Completed: 6 times
Size: 1.37 GB
 

Admin (07-окт-19)
Similar torrent
Forum Topic Author Size
Ужасы ,мистика ,триллеры Девушка на фотографиях / The Girl in the Photographs (2015) WEB-DLRip Admin 1.37 GB
Драмы Девушка-король / The girl king [2015, WEBRip] Admin 1.45 GB
Боевики Последняя девушка / Final Girl (Тайлер Шилдс / Tyler Shields) [2015, Канада, США, Триллер, драма, боевик, HDRip] VO (Хихикающий доктор) Admin 1.47 GB

_________________
[Profile] [PM]
Display posts from previous:    
Reply to topic

The time now is: Today 01:38

All times are GMT + 4 Hours



You cannot post new topics in this forum
You cannot reply to topics in this forum
You cannot edit your posts in this forum
You cannot delete your posts in this forum
You cannot vote in polls in this forum
You cannot attach files in this forum
You can download files in this forum