Акира / AKIRA / アキラ (1988) HDRip [H.264] Киномания скачать торрент

Reply to topic

DL-List and Torrent activity [Update пиров]
Size:  1.36 GB   |    Registered:  20 days   |    Completed:  0 times
Seeders:  7  [  33 KB/s  ]   Leechers:  1  [  182 KB/s  ]   Show peers in full details
 
 
 
 
Author Message

BiOS ®

Longevity: 5 years 5 months

Posts: 2336

Location: East Siberia


Post 25-Sep-2019 01:49

[Quote]

Акира / AKIRA / アキラ
«The end of the world was only the beginning»
- Производство: Япония, TMS Entertainment, Akira Committee Company Ltd., Bandai
Жанр: Аниме, Мультфильм, Фантастика, Боевик, Триллер, Детектив
Режиссер: Кацухиро Отомо
Актеры: Мицуо Ивата, Нозому Сасаки, Мами Кояма, Тэссё Гэнда, Хироси Отакэ, Койти Китамура, Michihiro Ikemizu, Юрико Футидзаки, Masaaki Фkura, Таро Аракава
Описание:
Спустя 31 год после Третьей мировой войны и ядерной бомбардировки столицы Японии, воссоздан новый город — Нью Токио.
Внешне все под контролем, однако, организация страны теперь напоминает профашистское государство, жесточайшим образом подавляющая попытки мятежа. В исследовательских центрах проводятся парапсихологические опыты над людьми для разработки совершенного вида оружия.
Военные, в лице полковника Сикисима, руководителя проекта биологических военных экспериментов, входят в конфликт с политическим крылом правительства. А в стране возникает религиозный культ сверхчеловека по имени Акира, приход которого, якобы, может решить все проблемы Японии.

Рейтинг MPAA: R (лицам до 17 лет обязательно присутствие взрослого)
Продолжительность: 02:04:28
Качество видео: HDRip
Перевод: Многоголосый закадровый - Киномания
Вид субтитров: Вшитые отключаемые
Язык субтитров: Русский, Английский
Видео: AVC/H.264 ([email protected]), [email protected] (1.85:1), 1300 Кбит/сек
Аудио #1: AAC, 2 канала, 128 Кбит/сек - русский (многоголосый закадровый)
Аудио #2: AAC, 2 канала, 128 Кбит/сек - японский

Mediainfo:

Код:
General
Format                                   : MPEG-4
Format profile                           : Base Media / Version 2
Codec ID                                 : mp42 (mp42/isom)
File size                                : 1.36 GiB
Duration                                 : 2h 4mn
Overall bit rate mode                    : Variable
Overall bit rate                         : 1 564 Kbps
Movie name                               : Akira
Performer                                : Katsuhiro Otomo
Director                                 : Katsuhiro Otomo
Actor                                    : Mitsuo Iwata / Nozomu Sasaki / Mami Koyama
Screenplay by                            : Katsuhiro Otomo / Izo Hashimoto
Producer                                 : Ryohei Suzuki / Shunzo Kato
Genre                                    : Anime
ContentType                              : Short Film
Description                              : Die Freunde Tetsuo und Kaneda sind typische Jugendliche Neo-Tokyos. Als Mitglieder einer
Recorded date                            : 1991-05-09
Encoded date                             : UTC 2016-09-11 19:25:50
Tagged date                              : UTC 2016-09-11 19:47:04
Copyright                                : 1988 Based on the graphic novel “Akira” Katsuhiro Otomo. First published “Young Magazine”, Kodansha Ltd. ©1988 MASHROOM/ AKIRA COMMITTEE All Rights Reserved.
Cover                                    : Yes
Rating                                   : None
LongDescription                          : Die Freunde Tetsuo und Kaneda sind typische Jugendliche Neo-Tokyos. Als Mitglieder einer Motorradgang machen sie nachts die Straßen unsicher und liefern sich harte Kämpfe mit rivalisierenden Gangs. Bei  einem dieser Konflikte stößt Tetsuo mit einer seltsamen Gestalt zusammen. Kurz darauf taucht das Militär auf, nimmt Tetsuo gefangen und führt an ihm Experimente durch, die unglaubliche psychische Kräfte in ihm wecken. Während Kaneda verzweifelt versucht, Tetsuo zu befreien, geraten dessen neugewonnene Kräfte immer mehr außer Kontrolle und drohen nun ein zweites Mal Tokyo zu vernichten.
AppleStoreCountry                        : Germany
AppleStoreCatalogID                      : 929218948
ContentRating                            : de-movie|Ab 16 Jahren|500|
Video
ID                                       : 1
Format                                   : AVC
Format/Info                              : Advanced Video Codec
Format profile                           : [email protected]
Format settings, CABAC                   : No
Format settings, ReFrames                : 5 frames
Codec ID                                 : avc1
Codec ID/Info                            : Advanced Video Coding
Duration                                 : 2h 4mn
Bit rate                                 : 1 300 Kbps
Width                                    : 736 pixels
Height                                   : 552 pixels
Display aspect ratio                     : 1.85:1
Original display aspect ratio            : 1.85:1
Frame rate mode                          : Variable
Frame rate                               : 23.976 (24000/1001) fps
Minimum frame rate                       : 23.810 fps
Maximum frame rate                       : 24.390 fps
Color space                              : YUV
Chroma subsampling                       : 4:2:0
Bit depth                                : 8 bits
Scan type                                : Progressive
Bits/(Pixel*Frame)                       : 0.133
Stream size                              : 1.13 GiB (83%)
Writing library                          : x264 core 148 r2705kMod 3f5ed56
Encoding settings                        : cabac=0 / ref=5 / deblock=1:0:0 / analyse=0x3:0x133 / me=umh / subme=7 / psy=1 / fade_compensate=0.00 / psy_rd=0.50:0.00 / mixed_ref=1 / me_range=32 / chroma_me=1 / trellis=2 / 8x8dct=1 / cqm=0 / deadzone=21,11 / fast_pskip=0 / chroma_qp_offset=-2 / threads=16 / lookahead_threads=4 / sliced_threads=0 / nr=0 / decimate=1 / interlaced=0 / bluray_compat=0 / constrained_intra=0 / fgo=0 / bframes=5 / b_pyramid=2 / b_adapt=2 / b_bias=0 / direct=3 / weightb=1 / open_gop=0 / weightp=2 / keyint=240 / keyint_min=23 / scenecut=40 / intra_refresh=0 / rc_lookahead=40 / rc=2pass / mbtree=1 / bitrate=1300 / ratetol=1.0 / qcomp=0.60 / qpmin=0 / qpmax=69 / qpstep=4 / cplxblur=20.0 / qblur=0.5 / vbv_maxrate=9000 / vbv_bufsize=9000 / nal_hrd=none / filler=0 / ip_ratio=1.40 / aq=3:0.60 / zones=43516,44634,b=1.8/50984,51800,b=1.6/52592,55007,b=1.6
Encoded date                             : UTC 2016-09-11 19:25:50
Tagged date                              : UTC 2016-09-11 19:34:57
Menus                                    : 7
Audio #1
ID                                       : 2
Format                                   : AAC
Format/Info                              : Advanced Audio Codec
Format profile                           : LC
Codec ID                                 : 40
Duration                                 : 2h 4mn
Source duration                          : 2h 4mn
Bit rate mode                            : Variable
Bit rate                                 : 128 Kbps
Maximum bit rate                         : 132 Kbps
Channel(s)                               : 2 channels
Channel positions                        : Front: L R
Sampling rate                            : 48.0 KHz
Frame rate                               : 46.875 fps (1024 spf)
Compression mode                         : Lossy
Stream size                              : 114 MiB (8%)
Source stream size                       : 114 MiB (8%)
Language                                 : Russian
Default                                  : Yes
Alternate group                          : 1
Encoded date                             : UTC 2016-09-11 19:25:50
Tagged date                              : UTC 2016-09-11 19:34:57
Audio #2
ID                                       : 3
Format                                   : AAC
Format/Info                              : Advanced Audio Codec
Format profile                           : LC
Codec ID                                 : 40
Duration                                 : 2h 4mn
Source duration                          : 2h 4mn
Bit rate mode                            : Variable
Bit rate                                 : 128 Kbps
Maximum bit rate                         : 132 Kbps
Channel(s)                               : 2 channels
Channel positions                        : Front: L R
Sampling rate                            : 48.0 KHz
Frame rate                               : 46.875 fps (1024 spf)
Compression mode                         : Lossy
Stream size                              : 114 MiB (8%)
Source stream size                       : 114 MiB (8%)
Language                                 : Japanese
Default                                  : No
Alternate group                          : 1
Encoded date                             : UTC 2016-09-11 19:25:50
Tagged date                              : UTC 2016-09-11 19:34:57
Text #1
ID                                       : 4
Format                                   : Timed Text
Muxing mode                              : sbtl
Codec ID                                 : tx3g
Duration                                 : 2h 0mn
Bit rate mode                            : Variable
Bit rate                                 : 81 bps
Stream size                              : 71.7 KiB (0%)
Language                                 : Russian
Default                                  : Yes
Forced                                   : No
Alternate group                          : 2
Encoded date                             : UTC 2016-09-11 19:25:50
Tagged date                              : UTC 2016-09-11 19:34:57
Text #2
ID                                       : 5
Format                                   : Timed Text
Muxing mode                              : sbtl
Codec ID                                 : tx3g
Duration                                 : 2h 0mn
Bit rate mode                            : Variable
Bit rate                                 : 81 bps
Stream size                              : 71.6 KiB (0%)
Language                                 : Russian
Default                                  : No
Forced                                   : No
Alternate group                          : 2
Encoded date                             : UTC 2016-09-11 19:25:50
Tagged date                              : UTC 2016-09-11 19:34:57
Text #3
ID                                       : 6
Format                                   : Timed Text
Muxing mode                              : sbtl
Codec ID                                 : tx3g
Duration                                 : 2h 0mn
Bit rate mode                            : Variable
Bit rate                                 : 49 bps
Stream size                              : 43.5 KiB (0%)
Language                                 : English
Default                                  : No
Forced                                   : No
Alternate group                          : 2
Encoded date                             : UTC 2016-09-11 19:25:50
Tagged date                              : UTC 2016-09-11 19:34:57
Menu
ID                                       : 7
Codec ID                                 : text
Duration                                 : 2h 4mn
Language                                 : English
Encoded date                             : UTC 2016-09-11 19:34:58
Tagged date                              : UTC 2016-09-11 19:34:58
Menu For                                 : 1
00:00:00.000                             : 2019 Neo Tokyo
00:03:04.308                             : Back Street
00:05:25.283                             : Joker
00:06:58.668                             : No. 26 Takashi
00:10:33.506                             : Chase
00:12:11.730                             : Tetsuo vs. Clown
00:16:53.887                             : Interrogation
00:20:37.443                             : Colonel's Office
00:23:45.340                             : Vocational School
00:26:44.686                             : Clown's Revenge
00:29:10.081                             : Illusion
00:32:10.511                             : Terrorist Bombing
00:35:21.577                             : Tetsu's Memory
00:38:14.250                             : Controll Room
00:41:23.147                             : Terrorist's Hideout
00:45:05.702                             : Supreme Excutives
00:47:40.107                             : Invasion
00:53:16.484                             : Battle in a Sewer
00:57:16.850                             : To the Baby Room
01:02:32.206                             : Locating Tetsuo
01:05:30.176                             : Tetsuo Flies
01:08:36.403                             : Haruki-Ya
01:11:11.058                             : In Prison
01:14:30.466                             : Ready for Battle
01:18:12.270                             : Nezu's Mansion
01:21:31.428                             : Nezu's Demise
01:25:57.485                             : Olympic Stadium
01:30:47.358                             : Frozen Capsule
01:36:05.509                             : Sol
01:39:38.805                             : Momentary Break
01:41:54.900                             : Stadium Showdown
01:45:42.336                             : Tetsuo's Mutation
01:49:21.680                             : Akira, Resurrected
01:52:23.695                             : Memories
01:56:06.960                             : Destruction
01:58:25.014                             : Return of Kaneda
Bit rate mode                            : VBR
-Скриншоты:


Смотреть онлайн


[trackeroc.org].29217.torrent 
Torrent: Registered   [ 2019-09-25 01:49 ]

Скачать торрент

14 KB

Status: checked
Completed: 4 times
Size: 1.36 GB
 

Admin (25-сен-19)

_________________
[Profile] [PM]
Display posts from previous:    
Reply to topic

The time now is: Today 12:38

All times are GMT + 4 Hours



You cannot post new topics in this forum
You cannot reply to topics in this forum
You cannot edit your posts in this forum
You cannot delete your posts in this forum
You cannot vote in polls in this forum
You cannot attach files in this forum
You can download files in this forum