28 панфиловцев (2016) WEB-DLRip скачать торрент

Reply to topic

DL-List and Torrent activity [Update пиров]
Size:  1.37 GB   |    Registered:  3 years 2 months   |    Completed:  7 times

Seeder not seen: 1 year 8 months

 
 
 
 
 
Author Message

BiOS ®

Longevity: 5 years 10 months

Posts: 2421

Location: Earth


Post 26-Dec-2016 11:34

[Quote]

28 панфиловцев - Производство: Россия / 28 панфиловцев, Libyan Palette Studios
Жанр: Военный, драма
Режиссер: Ким Дружинин, Андрей Шальопа
Продюсер: Андрей Шальопа, Антон Юдинцев
Актеры: Александр Устюгов, Яков Кучеревский, Азамат Нигманов, Олег Фёдоров, Алексей Морозов, Антон Кузнецов, Алексей Лонгин, Максим Белбородов, Дмитрий Мурашев, Виталий Коваленко
Описание:
Осенью 1941-го года немецкие части, стоявшие возле Волоколамска, отделяло от Москвы каких-нибудь два часа по шоссе. Однако, на этом шоссе стояла 316-я стрелковая дивизия под командованием генерала И. В. Панфилова. Этот военачальник обладал настолько высоким авторитетом среди личного состава, что бойцы дивизии сами называли себя панфиловцами. А дивизию — панфиловской.
Дата мировой премьеры: 16 декабря 2016
Дата российской премьеры: 24 ноября 2016, «UPI»
Дата выхода Blu-Ray и DVD релиза: 26 января 2017, «НД Плэй»
Продолжительность: 02:00:37
Качество видео: WEB-DL
Перевод: Не требуется (русский) iTunes
Видео: AVC/H.264, 1280x536, 4017 Кбит/с
Аудио #1: AAC LC, 2 ch, 158 Кбит/с
Аудио #2: AC3, 6 ch, 384 Кбит/с

Mediainfo:

Код:
Общее
Формат                                   : AVI
Формат/Информация                        : Audio Video Interleave
Размер файла                             : 1,37 Гбайт
Продолжительность                        : 2 ч. 0 м.
Общий поток                              : 1622 Кбит/сек
Программа кодирования                    : VirtualDubMod 1.5.10.2 (build 2540/release)
Библиотека кодирования                   : VirtualDubMod build 2540/release
Видео
Идентификатор                            : 0
Формат                                   : MPEG-4 Visual
Профиль формата                          : Advanced [email protected]
Параметр BVOP формата                    : 2
Параметр QPel формата                    : Нет
Параметр GMC формата                     : Без точки перехода
Параметр матрицы формата                 : Default (MPEG)
Идентификатор кодека                     : XVID
Идентификатор кодека/Подсказка           : XviD
Продолжительность                        : 2 ч. 0 м.
Битрейт                                  : 1229 Кбит/сек
Ширина                                   : 720 пикселей
Высота                                   : 304 пикселя
Соотношение сторон                       : 2,35:1
Частота кадров                           : 24,000 кадра/сек
Цветовое пространство                    : YUV
Субдискретизация насыщенности            : 4:2:0
Битовая глубина                          : 8 бит
Тип развёртки                            : Прогрессивная
Метод сжатия                             : С потерями
Бит/(Пиксели*Кадры)                      : 0.234
Размер потока                            : 1,04 Гбайт (76%)
Библиотека кодирования                   : XviD 1.2.1 (UTC 2008-12-04)
Аудио
Идентификатор                            : 1
Формат                                   : AC-3
Формат/Информация                        : Audio Coding 3
Расширение режима                        : CM (complete main)
Параметр Endianness формата              : Big
Идентификатор кодека                     : 2000
Продолжительность                        : 2 ч. 0 м.
Вид битрейта                             : Постоянный
Битрейт                                  : 384 Кбит/сек
Каналы                                   : 6 каналов
Расположение каналов                     : Front: L C R, Side: L R, LFE
Частота                                  : 48,0 КГц
Частота кадров                           : 31,250 кадров/сек (1536 spf)
Метод сжатия                             : С потерями
Размер потока                            : 331 Мбайт (24%)
Выравнивание                             : Разделение по промежуткам
Продолжительность промежутка             : 42  мс. (1,00 видеокадр)
Время предзагрузки промежутка            : 500  мс.
-Скриншоты:


Смотреть онлайн


[trackeroc.ru].17424.torrent 
 SILVER TORRENT! DOWNLOAD TRAFFIC PARTIALLY CONSIDERED! 
Torrent: Registered   [ 2016-12-26 11:34 ]

Скачать торрент

14 KB

Status: checked
Completed: 137 times
Size: 1.37 GB
 

Admin (26-дек-16)
Similar torrent
Forum Topic Author Size
Action, экшены Paint the Town Red v0.10.4 [Early Access] (2016) (RUS/ENG) Admin 1.38 GB
Космические и авиасимуляторы Pulsar: Lost Colony [Beta 28] (2016) (ENG) Repack DD Admin 1012 MB
Strategy, Стратегии Graviteam Tactics: Grim of Death [RUS / ENG] (2016) Admin 13.57 GB
Инди ,Sandbox (Linux+Mac) Factorio v0.18.9 (2016) [amd64] (ENG+RUS) _DD_ 2.43 GB
Песочницы, Sandbox Factorio v0.18.9 (2016) [64bit] (ENG+RUS) _DD_ 1.22 GB

_________________
[Profile] [PM]
Display posts from previous:    
Reply to topic

The time now is: Today 22:39

All times are GMT + 4 Hours



You cannot post new topics in this forum
You cannot reply to topics in this forum
You cannot edit your posts in this forum
You cannot delete your posts in this forum
You cannot vote in polls in this forum
You cannot attach files in this forum
You can download files in this forum